Вы используете незарегистрированную версию компонента "Вкладки"!

Поиск

(Jazz) Sam Yahel/Mike Moreno/Ari Hoenig/Seamu Blake - Jazz Side of the Moon: Music of Pink Floyd - 2008, WAVPack (image + .cue), lossless

Треклист:
Sam Yahel/Mike Moreno/Ari Hoenig/Seamu Blake - Jazz Side of the Moon: Music of Pink Floyd
Страна: USA
Жанр: Jazz
Год выпуска: 2008
Формат: WAVPack (image + .cue)
Битрейт аудио: lossless
Продолжительность: 55:29
Трэклист:
1 Breathe
2 On the Run, Pt. 1
3 Time
4 Any Colour You Like
5 The Great Gig in the Sky
6 Money
7 Us and Them
8 Brain Damage
9 On the Run, Pt. 2
Доп. информация: Органист Sam Yahel, трамбонист Seamus Blake, гитарист Mike Moreno и ударник Ari Hoenig сделали джазовую интерпретацию оригинального альбома Pink Floyd "Dark Side Of The Moon".
Вышло очень даже неплохо.
PS. В комплекте сканы.
 
log
EAC extraction logfile from 7. April 2008, 21:22
Yahel - Hoenig - Moreno - Blake / Jazz Side Of The Moon (The Music Of Pink Floyd)
Used drive : PLEXTOR - DVDR PX-810SA Adapter: 3 ID: 1
Read mode : Secure
Utilize accurate stream : Yes
Defeat audio cache : Yes
Make use of C2 pointers : No
Read offset correction : 48
Overread into Lead-In and Lead-Out : No
Fill up missing offset samples with silence : Yes
Delete leading and trailing silent blocks : No
Null samples used in CRC calculations : Yes
Used interface : Installed external ASPI interface
Used output format : Internal WAV Routines
Sample format : 44.100 Hz; 16 Bit; Stereo
TOC of the extracted CD
Track | Start | Length | Start sector | End sector
---------------------------------------------------------
1 | 0:00.00 | 6:29.10 | 0 | 29184
2 | 6:29.10 | 3:43.00 | 29185 | 45909
3 | 10:12.10 | 11:00.10 | 45910 | 95419
4 | 21:12.20 | 2:17.65 | 95420 | 105759
5 | 23:30.10 | 8:42.00 | 105760 | 144909
6 | 32:12.10 | 6:49.00 | 144910 | 175584
7 | 39:01.10 | 6:23.00 | 175585 | 204309
8 | 45:24.10 | 6:20.00 | 204310 | 232809
9 | 51:44.10 | 3:45.20 | 232810 | 249704
Range status and errors
Selected range
Filename D:\Jazz Side Of The Moon\Yahel - Hoenig - Moreno - Blake - Jazz Side Of The Moon (The Music Of Pink Floyd).wav
Peak level 100.0 %
Range quality 100.0 %
Test CRC 4F3FB7F1
Copy CRC 4F3FB7F1
Copy OK
No errors occurred
Any questions - support@pro-jazz.com. Есть вопросы - support@pro-jazz.com
04:25
255
Нет комментариев. Ваш будет первым!