Поиск

(Jazz) Red Mitchell & Isao Suzuki/Tsuyoshi Yamamoto - 1979 Bass Club - 1979, APE (image + .cue), lossless

Треклист:
Red Mitchell & Isao Suzuki/Tsuyoshi Yamamoto - 1979 Bass Club
Страна: Japan
Жанр: Jazz
Год выпуска: 1979
Формат: APE (image + .cue)
Битрейт аудио: lossless
Продолжительность: 39:31
Трэклист:
1. Opening of Bass Club (Isao Suzuki, Red Mitchell) 0:12
2. Perdido (Juan Tizo) 5:32
3. Polka Dots and Moonbeams (Johnny Burke, Jimmy Van Heusen) 8:28
4. Embraceable You (George Gershwin) 4:28
5. Yesterdays (Jerome Kern) 7:53
6. Alone Together (Howard Dietz, Arthur Schwartz) 5:08
7. Blues in the Closet (Oscar Pettiford) 7:11
8. Closing of Bass Club (Isao Suzuki, Red Mitchell) 0:12
Состав:
Red Mitchell (Bass)
Isao Suzuki (Piccolo-bass)
Tsuyoshi Yamamoto (Piano) (2,3,5,7)
Отчет ЕАС:
 
скрытый текст
Exact Audio Copy V0.99 prebeta 4 from 23. January 2008
Отчёт EAC об извлечении, выполненном 11. апреля 2008, 22:45
Red Mitchell & Isao Suzuki/Tsuyoshi Yamamoto / Bass Club
Дисковод: SlimtypeDVD A DS8A1P Adapter: 1 ID: 0
Режим чтения : Достоверность
Использование точного потока : Да
Отключение кэша аудио : Да
Использование указателей C2 : Нет
Коррекция смещения при чтении : 594
Способность читать области Lead-in и Lead-out : Нет
Заполнение пропущенных сэмплов тишиной : Да
Удаление блоков с тишиной в начале и конце : Нет
При вычислениях CRC использовались нулевые сэмплы : Да
Интерфейс : Встроенный Win32-интерфейс для Win NT/2000
Выходной формат : Внутренние WAV-операции
Формат сэмплов : 44.100 Гц; 16 бит; стерео
Смещение при сжатии : 594
TOC извлечённого CD
Трек | Старт | Длительность | Начальный сектор | Конечный сектор
---------------------------------------------------------------------
1 | 0:00.00 | 0:13.00 | 0 | 974
2 | 0:13.00 | 5:35.70 | 975 | 26169
3 | 5:48.70 | 8:32.70 | 26170 | 64639
4 | 14:21.65 | 4:33.47 | 64640 | 85161
5 | 18:55.37 | 7:56.58 | 85162 | 120919
6 | 26:52.20 | 5:10.72 | 120920 | 144241
7 | 32:03.17 | 7:11.08 | 144242 | 176574
8 | 39:14.25 | 0:14.57 | 176575 | 177681
Характеристики диапазона извлечения и сообщения об ошибках
Выбранный диапазон
Имя файла D:\Image\Red Mitchell - 1979 Bass Club\Red Mitchell & Isao Suzuki Tsuyoshi Yamamoto - Bass Club.wav
Пиковый уровень 98.7 %
Качество диапазона 100.0 %
CRC копии 01A94629
Копирование... OK
Ошибок не произошло
Конец отчёта
Доп. информация:
 
скрытый текст


Приватный:
Нет (DHT включён)
Размер:
136.05 Мб (142,663,352 байт) » файлов: 7
Участники:
1 раздают, 0 качают (1 участников всего)
Внешние участники:
8 раздают, 2 качают (10 участников всего) [ Обновить ]
Скорость:
1.78 Мб/c 0/c
For power users only: no seeders - write to support@pro-jazz.com. Для power user: нет сидеров - пишите на support@pro-jazz.com.
04:24
144
Нет комментариев. Ваш будет первым!