Поиск

(Jazz-Rock, Klezmer, Fusion, Avant-garde, Tzadik) Zakarya - Something Obvious - 2003, FLAC (tracks+.cue), lossless

(Jazz-Rock, Klezmer, Fusion, Avant-garde, Tzadik) Zakarya - Something Obvious - 2003, FLAC (tracks+.cue), lossless
Треклист:
Zakarya / Something Obvious
Жанр: Jazz-Rock, Klezmer, Fusion, Avant-garde, Tzadik
Страна-производитель диска: US
Год издания: 2003
Издатель (лейбл): Tzadik
Номер по каталогу: TZ 7184
Аудиокодек: FLAC (*.flac)
Тип рипа: tracks+.cue
Битрейт аудио: lossless
Продолжительность: 47:34
Источник (релизер): whatcd/karmacreep
Наличие сканов в содержимом раздачи: нет
Треклист:
01. Something Obvious (02:03)
02. Colere (05:12)
03. Ein Wirtschaftlich Wertwoller Jude (06:26)
04. De Pinsk a Minsk (04:30)
05. Struth (07:00)
06. De Minsk a Pinsk (01:15)
07. La Pieuvre (02:50)
08. Zakarya - Sirbazarbi (00:58)
09. L' Ceil (04:35)
10. Miloun (05:19)
11. The Shop (07:23)
 
Лог создания рипа
X Lossless Decoder version 20120226 (139.1)
XLD extraction logfile from 2012-03-21 10:53:45 +0000
Zakarya / Something Obvious
Used drive : OPTIARC DVD RW AD-5970H (revision 3APE)
Ripper mode : XLD Secure Ripper
Disable audio cache : OK for the drive with a cache less than 1375KiB
Make use of C2 pointers : NO
Read offset correction : 48
Max retry count : 100
Gap status : Analyzed, Appended (except HTOA)
TOC of the extracted CD
Track | Start | Length | Start sector | End sector
---------------------------------------------------------
1 | 00:00:00 | 02:02:72 | 0 | 9221
2 | 02:02:72 | 05:11:56 | 9222 | 32602
3 | 07:14:53 | 06:26:52 | 32603 | 61604
4 | 13:41:30 | 04:30:41 | 61605 | 81895
5 | 18:11:71 | 06:59:65 | 81896 | 113385
6 | 25:11:61 | 01:15:48 | 113386 | 119058
7 | 26:27:34 | 02:50:01 | 119059 | 131809
8 | 29:17:35 | 00:58:32 | 131810 | 136191
9 | 30:15:67 | 04:34:59 | 136192 | 156800
10 | 34:50:51 | 05:18:51 | 156801 | 180701
11 | 40:09:27 | 07:22:50 | 180702 | 213901
AccurateRip Summary
Track 01 : OK (confidence 1)
Track 02 : OK (confidence 1)
Track 03 : OK (confidence 1)
Track 04 : OK (confidence 1)
Track 05 : OK (confidence 1)
Track 06 : OK (confidence 1)
Track 07 : OK (confidence 1)
Track 08 : OK (confidence 1)
Track 09 : OK (confidence 1)
Track 10 : OK (confidence 1)
Track 11 : OK (confidence 1)
->All tracks accurately ripped.
All Tracks
Album gain : -8.79 dB
Peak : 1.000000
Statistics
Read error : 0
Jitter error (maybe fixed) : 0
Retry sector count : 0
Damaged sector count : 0
Track 01
Filename : /Users/Mathildesboobs/Music/Zakarya - Something Obvious (2003) [FLAC]/01 Something Obvious.flac
Pre-gap length : 00:02:00
Track gain : -8.57 dB
Peak : 1.000000
CRC32 hash (test run) : 6A286F2B
CRC32 hash : 6A286F2B
CRC32 hash (skip zero) : 33BBA206
AccurateRip signature : 9EAEC74E
->Accurately ripped! (confidence 1)
Statistics
Read error : 0
Jitter error (maybe fixed) : 0
Retry sector count : 0
Damaged sector count : 0
Track 02
Filename : /Users/Mathildesboobs/Music/Zakarya - Something Obvious (2003) [FLAC]/02 Colere.flac
Track gain : -8.80 dB
Peak : 0.988678
CRC32 hash (test run) : E4BC2624
CRC32 hash : E4BC2624
CRC32 hash (skip zero) : 48317D3C
AccurateRip signature : B935744D
->Accurately ripped! (confidence 1)
Statistics
Read error : 0
Jitter error (maybe fixed) : 0
Retry sector count : 0
Damaged sector count : 0
Track 03
Filename : /Users/Mathildesboobs/Music/Zakarya - Something Obvious (2003) [FLAC]/03 Ein Wirtschaftlich Wertwoller Jude.flac
Pre-gap length : 00:01:58
Track gain : -6.79 dB
Peak : 0.988678
CRC32 hash (test run) : 94376BE8
CRC32 hash : 94376BE8
CRC32 hash (skip zero) : CD2B8D56
AccurateRip signature : 16E10A83
->Accurately ripped! (confidence 1)
Statistics
Read error : 0
Jitter error (maybe fixed) : 0
Retry sector count : 0
Damaged sector count : 0
Track 04
Filename : /Users/Mathildesboobs/Music/Zakarya - Something Obvious (2003) [FLAC]/04 De Pinsk A Minsk.flac
Track gain : -7.05 dB
Peak : 1.000000
CRC32 hash (test run) : 0C718644
CRC32 hash : 0C718644
CRC32 hash (skip zero) : 1EBCDF11
AccurateRip signature : C72AE170
->Accurately ripped! (confidence 1)
Statistics
Read error : 0
Jitter error (maybe fixed) : 0
Retry sector count : 0
Damaged sector count : 0
Track 05
Filename : /Users/Mathildesboobs/Music/Zakarya - Something Obvious (2003) [FLAC]/05 Struth.flac
Pre-gap length : 00:01:08
Track gain : -6.82 dB
Peak : 0.988647
CRC32 hash (test run) : 7F8B09AC
CRC32 hash : 7F8B09AC
CRC32 hash (skip zero) : 74E3A689
AccurateRip signature : 67A0A4A5
->Accurately ripped! (confidence 1)
Statistics
Read error : 0
Jitter error (maybe fixed) : 0
Retry sector count : 0
Damaged sector count : 0
Track 06
Filename : /Users/Mathildesboobs/Music/Zakarya - Something Obvious (2003) [FLAC]/06 De Minsk A Pinsk.flac
Track gain : -9.74 dB
Peak : 0.988678
CRC32 hash (test run) : 3C25AD3C
CRC32 hash : 3C25AD3C
CRC32 hash (skip zero) : 80DCA8FD
AccurateRip signature : D15DA335
->Accurately ripped! (confidence 1)
Statistics
Read error : 0
Jitter error (maybe fixed) : 0
Retry sector count : 0
Damaged sector count : 0
Track 07
Filename : /Users/Mathildesboobs/Music/Zakarya - Something Obvious (2003) [FLAC]/07 La Pieuvre.flac
Pre-gap length : 00:01:66
Track gain : -7.48 dB
Peak : 0.988647
CRC32 hash (test run) : 0F7FD2AC
CRC32 hash : 0F7FD2AC
CRC32 hash (skip zero) : 0B70686C
AccurateRip signature : EAFBA8CB
->Accurately ripped! (confidence 1)
Statistics
Read error : 0
Jitter error (maybe fixed) : 0
Retry sector count : 0
Damaged sector count : 0
Track 08
Filename : /Users/Mathildesboobs/Music/Zakarya - Something Obvious (2003) [FLAC]/08 Sirbazarbi.flac
Track gain : -10.52 dB
Peak : 0.988647
CRC32 hash (test run) : 8C4EFB1E
CRC32 hash : 8C4EFB1E
CRC32 hash (skip zero) : 0283D2F7
AccurateRip signature : 88114F7B
->Accurately ripped! (confidence 1)
Statistics
Read error : 0
Jitter error (maybe fixed) : 0
Retry sector count : 0
Damaged sector count : 0
Track 09
Filename : /Users/Mathildesboobs/Music/Zakarya - Something Obvious (2003) [FLAC]/09 L'ceil.flac
Track gain : -10.32 dB
Peak : 1.000000
CRC32 hash (test run) : CBA45C5C
CRC32 hash : CBA45C5C
CRC32 hash (skip zero) : 0B862710
AccurateRip signature : F87150F5
->Accurately ripped! (confidence 1)
Statistics
Read error : 0
Jitter error (maybe fixed) : 0
Retry sector count : 0
Damaged sector count : 0
Track 10
Filename : /Users/Mathildesboobs/Music/Zakarya - Something Obvious (2003) [FLAC]/10 Miloun.flac
Track gain : -7.59 dB
Peak : 0.988647
CRC32 hash (test run) : 05D07F53
CRC32 hash : 05D07F53
CRC32 hash (skip zero) : CBD3C762
AccurateRip signature : 343EDAC5
->Accurately ripped! (confidence 1)
Statistics
Read error : 0
Jitter error (maybe fixed) : 0
Retry sector count : 0
Damaged sector count : 0
Track 11
Filename : /Users/Mathildesboobs/Music/Zakarya - Something Obvious (2003) [FLAC]/11 The Shop.flac
Track gain : -7.75 dB
Peak : 1.000000
CRC32 hash (test run) : 457C6F54
CRC32 hash : 457C6F54
CRC32 hash (skip zero) : 5E7112A8
AccurateRip signature : 57CCDE8F
->Accurately ripped! (confidence 1)
Statistics
Read error : 0
Jitter error (maybe fixed) : 0
Retry sector count : 0
Damaged sector count : 0
No errors occurred
End of status report
 
Содержание индексной карты (.CUE)
TITLE "Something Obvious"
PERFORMER "Zakarya"
REM GENRE "Jazz"
REM DATE "2003"
REM DISCNUMBER 1
REM TOTALDISCS 1
REM DISCID 8D0B240B
REM REPLAYGAIN_ALBUM_GAIN -8.79 dB
REM REPLAYGAIN_ALBUM_PEAK 1.000000
FILE "01 Something Obvious.flac" WAVE
TRACK 01 AUDIO
TITLE "Something Obvious"
REM REPLAYGAIN_TRACK_GAIN -8.57 dB
REM REPLAYGAIN_TRACK_PEAK 1.000000
INDEX 01 00:00:00
FILE "02 Colere.flac" WAVE
TRACK 02 AUDIO
TITLE "Colere"
REM REPLAYGAIN_TRACK_GAIN -8.80 dB
REM REPLAYGAIN_TRACK_PEAK 0.988678
INDEX 01 00:00:00
TRACK 03 AUDIO
TITLE "Ein Wirtschaftlich Wertwoller Jude"
REM REPLAYGAIN_TRACK_GAIN -6.79 dB
REM REPLAYGAIN_TRACK_PEAK 0.988678
INDEX 00 05:09:73
FILE "03 Ein Wirtschaftlich Wertwoller Jude.flac" WAVE
INDEX 01 00:00:00
FILE "04 De Pinsk A Minsk.flac" WAVE
TRACK 04 AUDIO
TITLE "De Pinsk A Minsk"
REM REPLAYGAIN_TRACK_GAIN -7.05 dB
REM REPLAYGAIN_TRACK_PEAK 1.000000
INDEX 01 00:00:00
TRACK 05 AUDIO
TITLE "Struth"
REM REPLAYGAIN_TRACK_GAIN -6.82 dB
REM REPLAYGAIN_TRACK_PEAK 0.988647
INDEX 00 04:29:33
FILE "05 Struth.flac" WAVE
INDEX 01 00:00:00
FILE "06 De Minsk A Pinsk.flac" WAVE
TRACK 06 AUDIO
TITLE "De Minsk A Pinsk"
REM REPLAYGAIN_TRACK_GAIN -9.74 dB
REM REPLAYGAIN_TRACK_PEAK 0.988678
INDEX 01 00:00:00
TRACK 07 AUDIO
TITLE "La Pieuvre"
REM REPLAYGAIN_TRACK_GAIN -7.48 dB
REM REPLAYGAIN_TRACK_PEAK 0.988647
INDEX 00 01:13:57
FILE "07 La Pieuvre.flac" WAVE
INDEX 01 00:00:00
FILE "08 Sirbazarbi.flac" WAVE
TRACK 08 AUDIO
TITLE "Sirbazarbi"
REM REPLAYGAIN_TRACK_GAIN -10.52 dB
REM REPLAYGAIN_TRACK_PEAK 0.988647
INDEX 01 00:00:00
FILE "09 L'ceil.flac" WAVE
TRACK 09 AUDIO
TITLE "L'ceil"
REM REPLAYGAIN_TRACK_GAIN -10.32 dB
REM REPLAYGAIN_TRACK_PEAK 1.000000
INDEX 01 00:00:00
FILE "10 Miloun.flac" WAVE
TRACK 10 AUDIO
TITLE "Miloun"
REM REPLAYGAIN_TRACK_GAIN -7.59 dB
REM REPLAYGAIN_TRACK_PEAK 0.988647
INDEX 01 00:00:00
FILE "11 The Shop.flac" WAVE
TRACK 11 AUDIO
TITLE "The Shop"
REM REPLAYGAIN_TRACK_GAIN -7.75 dB
REM REPLAYGAIN_TRACK_PEAK 1.000000
INDEX 01 00:00:00
 
Состав
Accordion – Yves Weyh
Bass – Vincent Posty
Composed By – Yves Weyh (tracks: 1 to 5, 7 to 11)
Drums – Pascal Gully
Guitar, Electronics – Alexandre Wimmer
Mastered By – Scott Hull (2)
Producer – Zakarya
Recorded By, Mixed By – Peter Deimel
05:01
259
Нет комментариев. Ваш будет первым!