Поиск

( avant-garde, world fusion) Zar - Jazz & Music from South Iran (2011), FLAC (tracks+.cue), lossless

( avant-garde, world fusion) Zar - Jazz & Music from South Iran (2011), FLAC (tracks+.cue), lossless
Треклист:


Zar - Jazz & Music from South Iran (2011)

Жанр: avant-garde, world fusion
Год выпуска: 2011
Издатель (лейбл):Buda Musique
Формат: FLAC (tracks+.cue)
Битрейт аудио: lossless
Продолжительность 51`50
Источник: what.cd
Saeid Shanbehzadeh: Iranian pipes, flutes, vocals
Matthieu Donarier: sax
Habib Meftaboushehri: percussion, flute, vocals
Manu Codjia: guitar
Naghib Shanbehzadeh: percussion
John Quitzke: drums

tracks

01 - Sar Kangi
02 - Zar
03 - Fayez Khani
04 - Choupi M2
05 - Darde Del
06 - Hadj
07 - Raghs
08 - Chahar Datsmal
09 - Hameh


 
.log
Exact Audio Copy V1.0 beta 3 from 29. August 2011
EAC extraction logfile from 29. February 2012, 19:14
Zar / Jazz & Music from South Iran
Used drive : PLEXTOR DVDR PX-860A Adapter: 0 ID: 0
Read mode : Secure
Utilize accurate stream : Yes
Defeat audio cache : Yes
Make use of C2 pointers : No
Read offset correction : 96
Overread into Lead-In and Lead-Out : No
Fill up missing offset samples with silence : Yes
Delete leading and trailing silent blocks : No
Null samples used in CRC calculations : Yes
Used interface : Native Win32 interface for Win NT & 2000
Gap handling : Appended to previous track
Used output format : User Defined Encoder
Selected bitrate : 1024 kBit/s
Quality : High
Add ID3 tag : No
Command line compressor : C:\Program Files\Exact Audio Copy 3\Flac\flac.exe
Additional command line options : -8 -V -T "ARTIST=%artist%" -T "TITLE=%title%" -T "ALBUM=%albumtitle%" -T "DATE=%year%" -T "TRACKNUMBER=%tracknr%" -T "GENRE=%genre%" -T "PERFORMER=%albuminterpret%" -T "COMPOSER=%composer%" %haslyrics%--tag-from-file=LYRICS="%lyricsfile%"%haslyrics% -T "ALBUMARTIST=%albumartist%" -T "DISCNUMBER=%cdnumber%" -T "TOTALDISCS=%totalcds%" -T "TOTALTRACKS=%numtracks%" -T "COMMENT=%comment%" %source% -o %dest%
TOC of the extracted CD
Track | Start | Length | Start sector | End sector
---------------------------------------------------------
1 | 0:00.00 | 4:54.61 | 0 | 22110
2 | 4:54.61 | 8:39.73 | 22111 | 61108
3 | 13:34.59 | 5:43.42 | 61109 | 86875
4 | 19:18.26 | 8:17.15 | 86876 | 124165
5 | 27:35.41 | 3:01.19 | 124166 | 137759
6 | 30:36.60 | 6:20.69 | 137760 | 166328
7 | 36:57.54 | 5:18.26 | 166329 | 190204
8 | 42:16.05 | 3:40.68 | 190205 | 206772
9 | 45:56.73 | 5:52.43 | 206773 | 233215
Track 1
Filename I:\DL\ Zar - Jazz & Music from South Iran (2011) [FLAC]\01 - Sar Kangi.wav
Pre-gap length 0:00:02.00
Peak level 97.7 %
Extraction speed 4.0 X
Track quality 99.9 %
Test CRC 432D6E06
Copy CRC 432D6E06
Track not present in AccurateRip database
Copy OK
Track 2
Filename I:\DL\ Zar - Jazz & Music from South Iran (2011) [FLAC]\02 - Zar.wav
Pre-gap length 0:00:01.38
Peak level 97.7 %
Extraction speed 5.4 X
Track quality 100.0 %
Test CRC F5B05AF1
Copy CRC F5B05AF1
Track not present in AccurateRip database
Copy OK
Track 3
Filename I:\DL\ Zar - Jazz & Music from South Iran (2011) [FLAC]\03 - Fayez Khani.wav
Pre-gap length 0:00:01.98
Peak level 97.7 %
Extraction speed 5.9 X
Track quality 100.0 %
Test CRC E389B21D
Copy CRC E389B21D
Track not present in AccurateRip database
Copy OK
Track 4
Filename I:\DL\ Zar - Jazz & Music from South Iran (2011) [FLAC]\04 - Choupi M2.wav
Pre-gap length 0:00:01.98
Peak level 97.7 %
Extraction speed 6.6 X
Track quality 100.0 %
Test CRC 0A24F186
Copy CRC 0A24F186
Track not present in AccurateRip database
Copy OK
Track 5
Filename I:\DL\ Zar - Jazz & Music from South Iran (2011) [FLAC]\05 - Darde Del.wav
Pre-gap length 0:00:01.98
Peak level 82.8 %
Extraction speed 5.4 X
Track quality 99.9 %
Test CRC 45B3979C
Copy CRC 45B3979C
Track not present in AccurateRip database
Copy OK
Track 6
Filename I:\DL\ Zar - Jazz & Music from South Iran (2011) [FLAC]\06 - Hadj.wav
Pre-gap length 0:00:01.98
Peak level 97.7 %
Extraction speed 7.2 X
Track quality 100.0 %
Test CRC 4B3D63A6
Copy CRC 4B3D63A6
Track not present in AccurateRip database
Copy OK
Track 7
Filename I:\DL\ Zar - Jazz & Music from South Iran (2011) [FLAC]\07 - Raghs.wav
Pre-gap length 0:00:02.38
Peak level 97.7 %
Extraction speed 7.4 X
Track quality 100.0 %
Test CRC 53BD35E1
Copy CRC 53BD35E1
Track not present in AccurateRip database
Copy OK
Track 8
Filename I:\DL\ Zar - Jazz & Music from South Iran (2011) [FLAC]\08 - Chahar Datsmal.wav
Pre-gap length 0:00:02.38
Peak level 97.7 %
Extraction speed 7.2 X
Track quality 100.0 %
Test CRC AD69B78C
Copy CRC AD69B78C
Track not present in AccurateRip database
Copy OK
Track 9
Filename I:\DL\ Zar - Jazz & Music from South Iran (2011) [FLAC]\09 - Hameh.wav
Pre-gap length 0:00:01.98
Peak level 97.7 %
Extraction speed 7.3 X
Track quality 99.9 %
Test CRC A857A133
Copy CRC A857A133
Track not present in AccurateRip database
Copy OK
None of the tracks are present in the AccurateRip database
No errors occurred
End of status report
---- CUETools DB Plugin V2.1.3
[CTDB TOCID: s5c8TsJauyuMYi5pBqI9CR6ZxSQ-] disk not present in database, Submit result: s5c8TsJauyuMYi5pBqI9CR6ZxSQ- has been uploaded
==== Log checksum 42B48E41F225C276F813E582EB36CF58426589A2DB808446DA6F7C4A86EDC0A5 ====
 
.cue
REM GENRE Jazz
REM DATE 2011
REM DISCID 870C2509
REM COMMENT "ExactAudioCopy v1.0b3"
PERFORMER " Zar "
TITLE "Jazz & Music from South Iran"
FILE "01 - Sar Kangi.wav" WAVE
TRACK 01 AUDIO
TITLE "Sar Kangi"
PERFORMER " Zar "
INDEX 01 00:00:00
TRACK 02 AUDIO
TITLE "Zar"
PERFORMER " Zar "
INDEX 00 04:53:32
FILE "02 - Zar.wav" WAVE
INDEX 01 00:00:00
TRACK 03 AUDIO
TITLE "Fayez Khani"
PERFORMER " Zar "
INDEX 00 08:37:74
FILE "03 - Fayez Khani.wav" WAVE
INDEX 01 00:00:00
TRACK 04 AUDIO
TITLE "Choupi M2"
PERFORMER " Zar "
INDEX 00 05:41:43
FILE "04 - Choupi M2.wav" WAVE
INDEX 01 00:00:00
TRACK 05 AUDIO
TITLE "Darde Del"
PERFORMER " Zar "
INDEX 00 08:15:16
FILE "05 - Darde Del.wav" WAVE
INDEX 01 00:00:00
TRACK 06 AUDIO
TITLE "Hadj"
PERFORMER " Zar "
INDEX 00 02:59:20
FILE "06 - Hadj.wav" WAVE
INDEX 01 00:00:00
TRACK 07 AUDIO
TITLE "Raghs"
PERFORMER " Zar "
INDEX 00 06:18:40
FILE "07 - Raghs.wav" WAVE
INDEX 01 00:00:00
TRACK 08 AUDIO
TITLE "Chahar Datsmal"
PERFORMER " Zar "
INDEX 00 05:15:72
FILE "08 - Chahar Datsmal.wav" WAVE
INDEX 01 00:00:00
TRACK 09 AUDIO
TITLE "Hameh"
PERFORMER " Zar "
INDEX 00 03:38:69
FILE "09 - Hameh.wav" WAVE
INDEX 01 00:00:00

другие релизы
05:00
233
Нет комментариев. Ваш будет первым!