Поиск

(Jazz-Rock) Eumir Deodato - Love Island - 1978, FLAC (image+.cue), lossless

(Jazz-Rock) Eumir Deodato - Love Island - 1978, FLAC (image+.cue), lossless
Треклист:
Eumir Deodato - Love Island
Жанр: Jazz-Rock
Год выпуска диска: 1978
Производитель диска: Germany
Label: Atlantic
Аудио кодек: FLAC
Тип рипа: image+.cue
Битрейт аудио: lossless
Продолжительность: 39:36.027 (104782776 samples)
Источник: нонэйм, автор Михаил Милославский
Трэклист:
1. Area Code 808
2. Whistle Bump
3. Tahitti Hut
4. San Juan Sunset
5. Love Island
6. Chariot of the Gods
7. Piña Colada
8. Take the "A" Train
Музыканты:
Harvey Mason
Rick Marotta
Philip Bailey
John Tropea
Jimmy Maelen - percussion
Gordon Edwards
Verdine White
Eumir Deodato - vocals, whistle, piano, keyboards, synthesizer, congas, percussion
Joe Correro - drums
Al Mckay - guitar
Ray Armando
Freddie White
Pops Popwell - bass instrument
 
EAC log:
Exact Audio Copy V0.99 prebeta 3 from 28. July 2007
Отчёт EAC об извлечении, выполненном 5. марта 2009, 20:13
Eumir Deodato / Love Island
Дисковод: HL-DT-STDVD-RAM GSA-H55N Adapter: 0 ID: 0
Режим чтения : Достоверность
Использование точного потока : Да
Отключение кэша аудио : Да
Использование указателей C2 : Нет
Коррекция смещения при чтении : 102
Способность читать области Lead-in и Lead-out : Нет
Заполнение пропущенных сэмплов тишиной : Да
Удаление блоков с тишиной в начале и конце : Нет
При вычислениях CRC использовались нулевые сэмплы : Нет
Интерфейс : Установленный внешний ASPI-интерфейс
Выходной формат : Пользовательский кодировщик
Выбранный битрейт : 768 kBit/s
Качество : Высокий
Добавление ID3-тэга : Нет
Утилита сжатия : C:\Program Files\Exact Audio Copy\FLAC\FLAC.EXE
Дополнительные параметры : -6 -V -T "ARTIST=%a" -T "TITLE=%t" -T "ALBUM=%g" -T "DATE=%y" -T "TRACKNUMBER=%n" -T "GENRE=%m" -T "COMMENT=%e" %s -o %d
TOC извлечённого CD
Трек | Старт | Длительность | Начальный сектор | Конечный сектор
---------------------------------------------------------------------
1 | 0:00.00 | 6:45.55 | 0 | 30429
2 | 6:45.55 | 4:32.40 | 30430 | 50869
3 | 11:18.20 | 4:27.62 | 50870 | 70956
4 | 15:46.07 | 4:15.40 | 70957 | 90121
5 | 20:01.47 | 6:40.35 | 90122 | 120156
6 | 26:42.07 | 3:09.23 | 120157 | 134354
7 | 29:51.30 | 5:55.62 | 134355 | 161041
8 | 35:47.17 | 3:48.60 | 161042 | 178201
Характеристики диапазона извлечения и сообщения об ошибках
Выбранный диапазон
Имя файла C:\Users\Миша\Documents\Eumir Deodato - Love Island\Eumir Deodato - Love Island.wav
Пиковый уровень 89.8 %
Качество диапазона 99.9 %
CRC копии C86D9C7E
Копирование... OK
Ошибок не произошло
AccurateRip: сводка
Трек 1 нет в базе данных
Трек 2 нет в базе данных
Трек 3 нет в базе данных
Трек 4 нет в базе данных
Трек 5 нет в базе данных
Трек 6 нет в базе данных
Трек 7 нет в базе данных
Трек 8 нет в базе данных
Ни одного трека нет в базе AccurateRip
Конец отчёта
По всем вопросам пишите личное сообщение пользователю M0p94ok.
05:23
204
Нет комментариев. Ваш будет первым!