Поиск

(Jazz / Bossa Nova) Bossa Nova The Smoothest Tunes For The Coolest People [4 CD] - 2003, FLAC (image+.cue), lossless

(Jazz / Bossa Nova) Bossa Nova The Smoothest Tunes For The Coolest People [4 CD] - 2003, FLAC (image+.cue), lossless
Треклист:
Bossa Nova The Smoothest Tunes For The Coolest People Жанр: Jazz / Bossa Nova
Год выпуска диска: 2003
Производитель диска: Germany
Лейбл: Universal International Music B.V.
Католог №: 0602498088999 LC 01846
Аудио кодек: FLAC
Тип рипа: image+.cue
Битрейт аудио: lossless
Продолжительность: 4 часа 30 минут 51 секунда
Трэклист:
 
CD1: Продолжительность: 57:00
1. Elis Regina & Tom Jobim - Aguas De Marco (3:33)
2. Os Cariocas - Samba Do Aviao (2:35)
3. Nara Leao - Outra Vez (3:19)
4. Joao Donato E Seu Trio - So Danco Samba (2:02)
5. Gal Costa - Desafinado (2:33)
6. Claudette Soares - Ao Amigo Tom (2:17)
7. Leila Pinheiro - Errinho А Toa (3:11)
8. Astrud Gilberto & Tom Jobim - So Tinha De Ser Com Voce (2:20)
9. Vinicius de Moraes - Soneto Do Amor Total (1:48)
10. Lucio Alves - Cheiro De Saudade (2:15)
11. Elis Regina & Tom Jobim - Corcovado (3:52)
12. Gilberto Gil - Preciso Aprender A So Ser (4:30)
13. Pele & Elis Regina - Vexamao (2:17)
14. Emilio Santiago - Tristeza De Nos Dois (2:54)
15. Nara Leao - Carcara (1:53)
16. Sergio Mendes Trio - Inutil Paisagem (3:21)
17. Vinicius de Moraes,Toquinho & Quarteto Em Cy - Carta Ao Tom 74 (2:43)
18. Edu Lobo & Tom Jobim - E Preciso Dizer Adeus (4:17)
19. Sylvia Telles - Ilusao А Toa (2:25)
20. Roberto Menescal - O Barquinho (2:55)
 
Отчёт EAC-CD1
Exact Audio Copy V0.99 prebeta 4 from 23. January 2008
Отчёт EAC об извлечении, выполненном 15. марта 2009, 11:06
Various / Bossa Nova CD1
Дисковод: Optiarc DVD RW AD-7173A Adapter: 1 ID: 0
Режим чтения : Достоверность
Использование точного потока : Да
Отключение кэша аудио : Да
Использование указателей C2 : Нет
Коррекция смещения при чтении : 48
Способность читать области Lead-in и Lead-out : Нет
Заполнение пропущенных сэмплов тишиной : Да
Удаление блоков с тишиной в начале и конце : Нет
При вычислениях CRC использовались нулевые сэмплы : Да
Интерфейс : Встроенный Win32-интерфейс для Win NT/2000
Выходной формат : Внутренние WAV-операции
Формат сэмплов : 44.100 Гц; 16 бит; стерео
TOC извлечённого CD
Трек | Старт | Длительность | Начальный сектор | Конечный сектор
---------------------------------------------------------------------
1 | 0:00.00 | 3:33.37 | 0 | 16011
2 | 3:33.37 | 2:35.53 | 16012 | 27689
3 | 6:09.15 | 3:19.10 | 27690 | 42624
4 | 9:28.25 | 2:02.42 | 42625 | 51816
5 | 11:30.67 | 2:33.73 | 51817 | 63364
6 | 14:04.65 | 2:17.27 | 63365 | 73666
7 | 16:22.17 | 3:11.35 | 73667 | 88026
8 | 19:33.52 | 2:20.70 | 88027 | 98596
9 | 21:54.47 | 1:48.33 | 98597 | 106729
10 | 23:43.05 | 2:15.27 | 106730 | 116881
11 | 25:58.32 | 3:52.13 | 116882 | 134294
12 | 29:50.45 | 4:30.20 | 134295 | 154564
13 | 34:20.65 | 2:17.12 | 154565 | 164851
14 | 36:38.02 | 2:54.73 | 164852 | 177974
15 | 39:33.00 | 1:53.27 | 177975 | 186476
16 | 41:26.27 | 3:21.35 | 186477 | 201586
17 | 44:47.62 | 2:43.18 | 201587 | 213829
18 | 47:31.05 | 4:17.35 | 213830 | 233139
19 | 51:48.40 | 2:25.32 | 233140 | 244046
20 | 54:13.72 | 2:55.10 | 244047 | 257181
Характеристики диапазона извлечения и сообщения об ошибках
Выбранный диапазон
Имя файла F:\___Torrent\Bossa Nova The Smoothest Tunes For The Coolect People\CD1\Bossa Nova CD1.wav
Пиковый уровень 100.0 %
Качество диапазона 99.9 %
CRC копии AD831C8A
Копирование... OK
Ошибок не произошло
Конец отчёта
 
CD2: Продолжительность: 66:17
1. Toquinho & Chico Buarque - Samba De Orly (Samba De Fiumicino) (2:42)
2. Os Cariocas - Ela E Carioca (2:36)
3. Nara Leao - Wave (3:38)
4. Baden Powell & Mauricio Einhorn - Consolacao (7:46)
5. Maysa - Dindi (Ao Vivo) (3:14)
6. MPB-4 - Chega De Saudade (2:16)
7. Tom Jobim - Insensatez (2:55)
8. Nara Leao - Samba De Uma Nota So (2:09)
9. Gal Costa - A Ra (3:53)
10. Leila Pinheiro - O Amor Em Paz - Meditacao - Corcovado - Ela E Carioca (6:28)
11. Edu Lobo - Upa Neguinho (2:20)
12. Elis Regina - Tereza Sabe Sambar (3:29)
13. Gal Costa - Aquarela Do Brasil (3:26)
14. Elis Regina - Meio De Campo (1:57)
15. Quarteto Em Cy - Canto De Ossanha (3:01)
16. MPB-4 - Candelais (2:55)
17. Elis Regina & Tom Jobim - Chovendo Na Roseira (3:13)
18. Quarteto Em Cy & Tamba Trio - Imagem (3:26)
19. Meirelles & Os Copa 5 - Solo (1:44)
20. Tom Jobim & Dorival Caymmi - Saudade Da Bahia (3:09)
 
Отчёт EAC-CD2
Exact Audio Copy V0.99 prebeta 4 from 23. January 2008
Отчёт EAC об извлечении, выполненном 15. марта 2009, 11:53
Various / Bossa Nova CD2
Дисковод: Optiarc DVD RW AD-7173A Adapter: 1 ID: 0
Режим чтения : Достоверность
Использование точного потока : Да
Отключение кэша аудио : Да
Использование указателей C2 : Нет
Коррекция смещения при чтении : 48
Способность читать области Lead-in и Lead-out : Нет
Заполнение пропущенных сэмплов тишиной : Да
Удаление блоков с тишиной в начале и конце : Нет
При вычислениях CRC использовались нулевые сэмплы : Да
Интерфейс : Встроенный Win32-интерфейс для Win NT/2000
Выходной формат : Внутренние WAV-операции
Формат сэмплов : 44.100 Гц; 16 бит; стерео
TOC извлечённого CD
Трек | Старт | Длительность | Начальный сектор | Конечный сектор
---------------------------------------------------------------------
1 | 0:00.00 | 2:42.14 | 0 | 12163
2 | 2:42.14 | 2:36.44 | 12164 | 23907
3 | 5:18.58 | 3:38.21 | 23908 | 40278
4 | 8:57.04 | 7:46.33 | 40279 | 75261
5 | 16:43.37 | 3:14.53 | 75262 | 89864
6 | 19:58.15 | 2:16.01 | 89865 | 100065
7 | 22:14.16 | 2:55.19 | 100066 | 113209
8 | 25:09.35 | 2:09.06 | 113210 | 122890
9 | 27:18.41 | 3:53.24 | 122891 | 140389
10 | 31:11.65 | 6:28.70 | 140390 | 169559
11 | 37:40.60 | 2:20.11 | 169560 | 180070
12 | 40:00.71 | 3:29.68 | 180071 | 195813
13 | 43:30.64 | 3:26.72 | 195814 | 211335
14 | 46:57.61 | 1:57.35 | 211336 | 220145
15 | 48:55.21 | 3:01.33 | 220146 | 233753
16 | 51:56.54 | 2:55.09 | 233754 | 246887
17 | 54:51.63 | 3:13.52 | 246888 | 261414
18 | 58:05.40 | 3:26.05 | 261415 | 276869
19 | 61:31.45 | 1:44.62 | 276870 | 284731
20 | 63:16.32 | 3:09.55 | 284732 | 298961
Характеристики диапазона извлечения и сообщения об ошибках
Выбранный диапазон
Имя файла F:\___Torrent\Bossa Nova The Smoothest Tunes For The Coolect People\CD2\Bossa Nova CD2.wav
Пиковый уровень 100.0 %
Качество диапазона 100.0 %
CRC копии 07D9C05D
Копирование... OK
Ошибок не произошло
Конец отчёта
 
CD3: Продолжительность: 76:38
1. Caetano Veloso - Odara (6:57)
2. Jorge Benjor & Ivete Sangalo - Por Causa De Voce, Menina (Ao Vivo) (5:04)
3. Tim Maia - Me De Motivo (5:30)
4. Toquinho & Vinicius - Regra Tres (Ao Vivo) (3:20)
5. Leila Pinheiro - Como Uma Onda (Zen Surfismo) (4:46)
6. Hyldon - Na Rua, Na Chuva, Na Fazenda (Casinha De Sape) (3:32)
7. Cassiano - Colecao (3:12)
8. Gal Costa - Azul (3:27)
9. Joao Bosco - O Bкbado E A Equilibrista (2:47)
10. Zizi Possi - Asa Morena (4:05)
11. Ney Matogrosso - O Mundo E Um Moinho (2:58)
12. Emilio Santiago - Dois Pra La, Dois Pra Ca (3:18)
13. Ivan Lins - Novo Tempo (4:19)
14. Marina Lima - Nada Por Mim (3:08)
15. Toquinho & Vinicius - Onde Anda Voce (2:49)
16. Celso Fonseca - Slow Motion Bossa Nova (4:49)
17. Sergio Mendes & Bossa Rio - Garota De Ipanema (3:17)
18. Nara Leao - A Banda (2:07)
19. Gilberto Gil - Chiclete Com Banana (3:23)
20. Jorge Ben - Ponta De Lanca Africano (Umbabarauma) (3:50)
 
Отчёт EAC-CD3
Exact Audio Copy V0.99 prebeta 4 from 23. January 2008
Отчёт EAC об извлечении, выполненном 15. марта 2009, 16:26
Various / Bossa Nova CD3
Дисковод: Optiarc DVD RW AD-7173A Adapter: 1 ID: 0
Режим чтения : Достоверность
Использование точного потока : Да
Отключение кэша аудио : Да
Использование указателей C2 : Нет
Коррекция смещения при чтении : 48
Способность читать области Lead-in и Lead-out : Нет
Заполнение пропущенных сэмплов тишиной : Да
Удаление блоков с тишиной в начале и конце : Нет
При вычислениях CRC использовались нулевые сэмплы : Да
Интерфейс : Встроенный Win32-интерфейс для Win NT/2000
Выходной формат : Внутренние WAV-операции
Формат сэмплов : 44.100 Гц; 16 бит; стерео
TOC извлечённого CD
Трек | Старт | Длительность | Начальный сектор | Конечный сектор
---------------------------------------------------------------------
1 | 0:00.00 | 6:57.23 | 0 | 31297
2 | 6:57.23 | 5:04.16 | 31298 | 54113
3 | 12:01.39 | 5:30.19 | 54114 | 78882
4 | 17:31.58 | 3:20.48 | 78883 | 93930
5 | 20:52.31 | 4:46.04 | 93931 | 115384
6 | 25:38.35 | 3:32.05 | 115385 | 131289
7 | 29:10.40 | 3:12.02 | 131290 | 145691
8 | 32:22.42 | 3:27.48 | 145692 | 161264
9 | 35:50.15 | 2:47.17 | 161265 | 173806
10 | 38:37.32 | 4:05.27 | 173807 | 192208
11 | 42:42.59 | 2:58.27 | 192209 | 205585
12 | 45:41.11 | 3:18.69 | 205586 | 220504
13 | 49:00.05 | 4:19.66 | 220505 | 239995
14 | 53:19.71 | 3:08.60 | 239996 | 254155
15 | 56:28.56 | 2:49.71 | 254156 | 266901
16 | 59:18.52 | 4:49.42 | 266902 | 288618
17 | 64:08.19 | 3:17.08 | 288619 | 303401
18 | 67:25.27 | 2:07.74 | 303402 | 313000
19 | 69:33.26 | 3:23.06 | 313001 | 328231
20 | 72:56.32 | 3:50.30 | 328232 | 345511
Характеристики диапазона извлечения и сообщения об ошибках
Выбранный диапазон
Имя файла F:\___Torrent\Bossa Nova The Smoothest Tunes For The Coolect People\CD3\Bossa Nova CD3.wav
Пиковый уровень 100.0 %
Качество диапазона 100.0 %
CRC копии 3B762E41
Копирование... OK
Ошибок не произошло
Конец отчёта
 
CD4: Продолжительность: 70:56
1. Jorge Ben - Filho Maravilha (3:14)
2. Elba Ramalho - Bate Coracao (3:18)
3. Tim Maia - O Descobridor Dos Sete Mares (4:25)
4. Tamba Trio - Mas Que Nada (2:44)
5. Chico Buarque - Apesar De Voce (3:54)
6. Jorge Ben - Pais Tropical (4:10)
7. Gal Costa - Canta Brasil (3:15)
8. Tamba Trio - Tamba (2:42)
9. Elis Regina - Dois Pra La, Dois Pra Ca (4:26)
10. MPB-4 & Quarteto Em Cy - Falando De Amor (3:22)
11. Joao Nogueira - Samba Rubro Negro (O Mais Querido) (3:05)
12. Ivan Lins - Madalena (2:11)
13. Tim Maia - Nao Quero Dinheiro (So Quero Amar) (2:34)
14. Elba Ramalho - Banho De Cheiro (3:52)
15. Gilberto Gil - Aquele Abraco (4:31)
16. Timbalada - Beija Flor (4:30)
17. Jorge Ben - Take It Easy My Brother Charles (2:37)
18. Ney Matogrosso - Pro Dia Nascer Feliz (4:16)
19. Jorge Ben - Camisa 10 Da Gavea (4:02)
20. Gal Costa - E Luxo So (3:48)
 
Отчёт EAC-CD4
Exact Audio Copy V0.99 prebeta 4 from 23. January 2008
Отчёт EAC об извлечении, выполненном 15. марта 2009, 16:51
Various Artists / Bossa Nova CD4
Дисковод: Optiarc DVD RW AD-7173A Adapter: 1 ID: 0
Режим чтения : Достоверность
Использование точного потока : Да
Отключение кэша аудио : Да
Использование указателей C2 : Нет
Коррекция смещения при чтении : 48
Способность читать области Lead-in и Lead-out : Нет
Заполнение пропущенных сэмплов тишиной : Да
Удаление блоков с тишиной в начале и конце : Нет
При вычислениях CRC использовались нулевые сэмплы : Да
Интерфейс : Встроенный Win32-интерфейс для Win NT/2000
Выходной формат : Внутренние WAV-операции
Формат сэмплов : 44.100 Гц; 16 бит; стерео
TOC извлечённого CD
Трек | Старт | Длительность | Начальный сектор | Конечный сектор
---------------------------------------------------------------------
1 | 0:00.00 | 3:14.62 | 0 | 14611
2 | 3:14.62 | 3:18.25 | 14612 | 29486
3 | 6:33.12 | 4:25.28 | 29487 | 49389
4 | 10:58.40 | 2:44.67 | 49390 | 61756
5 | 13:43.32 | 3:54.05 | 61757 | 79311
6 | 17:37.37 | 4:10.23 | 79312 | 98084
7 | 21:47.60 | 3:15.35 | 98085 | 112744
8 | 25:03.20 | 2:42.42 | 112745 | 124936
9 | 27:45.62 | 4:26.53 | 124937 | 144939
10 | 32:12.40 | 3:22.42 | 144940 | 160131
11 | 35:35.07 | 3:05.45 | 160132 | 174051
12 | 38:40.52 | 2:11.08 | 174052 | 183884
13 | 40:51.60 | 2:34.27 | 183885 | 195461
14 | 43:26.12 | 3:52.23 | 195462 | 212884
15 | 47:18.35 | 4:31.72 | 212885 | 233281
16 | 51:50.32 | 4:30.73 | 233282 | 253604
17 | 56:21.30 | 2:37.02 | 253605 | 265381
18 | 58:58.32 | 4:16.53 | 265382 | 284634
19 | 63:15.10 | 4:02.45 | 284635 | 302829
20 | 67:17.55 | 3:48.70 | 302830 | 319999
Характеристики диапазона извлечения и сообщения об ошибках
Выбранный диапазон
Имя файла F:\___Torrent\Bossa Nova The Smoothest Tunes For The Coolect People\CD3\Bossa Nova CD4.wav
Пиковый уровень 99.9 %
Качество диапазона 99.9 %
CRC копии AEBC9851
Копирование... OK
Ошибок не произошло
Конец отчёта
Доп. информация: Босса Нова в переводе означает "новый стиль", который возник в Рио Де Жанейро в 1958 году. Основатели стиля хотели разрушить сложившиеся традиции, развить ритм самбы и внести частичку американского джаза, получив в результате особенный танец, который никого не оставил равнодушным.
Босса Нова - это взмах пальмовых листьев, это тающий сахар в горячем кофе, это закат солнца и теплый песок под ногами. Это звук и ритм Бразилии, один из самых популярных стилей, и он остается на сегодняший день одним из величайших музыкальных сокровищ мира.
Слушайте и наслаждайтесь!
Рип мой. Все обложки имеются!
MP3 раздача надодится здесь:
http://rutracker.org/forum/viewtopic.php?t=1671248 не забываем говорить "Спасибо"
05:22
303
Нет комментариев. Ваш будет первым!