Поиск

(Jazz-Rock, Brazilian Fusion, Instrumental) Bipin' - Quatro Elementos - 1995, FLAC (image+.cue), lossless

(Jazz-Rock, Brazilian Fusion, Instrumental) Bipin' - Quatro Elementos - 1995, FLAC (image+.cue), lossless
Треклист:
Bipin' - Quatro Elementos
Жанр: Jazz-Rock, Brazilian Fusion, Instrumental
Год выпуска диска: 1995
Производитель диска: Brazilia
Аудио кодек: FLAC
Тип рипа: image+.cue
Продолжительность: 52:10
Источник: kelia99
Трэклист:
01. Kraterah!
02. Clima
03. Sambary Love
04. Cocoon
05. Solidão
06. Cuba
07. Sri-Mahendra
08. Spain
09. Bipin'
Доп. информация:
Line-up Musicians:
-Joe Moghrabi / Guitar, Synthesizer
-Kiko Moura / Guitar
-Ximba Uchyama / 4 & 6 Strings Freted/Fretless Bass
-Douglas Las Casas / Drums & Percussion
 
Отчёт EAC
Exact Audio Copy V0.99 prebeta 5 from 4. May 2009
Отчёт EAC об извлечении, выполненном 13. июня 2010, 11:51
Bipin' / Quatro Elementos
Дисковод: HL-DT-STDVDRAM GSA-H66N Adapter: 3 ID: 0
Режим чтения : Достоверность
Использование точного потока : Да
Отключение кэша аудио : Да
Использование указателей C2 : Нет
Коррекция смещения при чтении : 667
Способность читать области Lead-in и Lead-out : Нет
Заполнение пропущенных сэмплов тишиной : Да
Удаление блоков с тишиной в начале и конце : Нет
При вычислениях CRC использовались нулевые сэмплы : Да
Интерфейс : Встроенный Win32-интерфейс для Win NT/2000
Выходной формат : Внутренние WAV-операции
Формат сэмплов : 44.100 Гц; 16 бит; стерео
TOC извлечённого CD
Трек | Старт | Длительность | Начальный сектор | Конечный сектор
---------------------------------------------------------------------
1 | 0:00.00 | 7:18.72 | 0 | 32921
2 | 7:18.72 | 8:35.48 | 32922 | 71594
3 | 15:54.45 | 7:09.00 | 71595 | 103769
4 | 23:03.45 | 5:24.52 | 103770 | 128121
5 | 28:28.22 | 5:53.03 | 128122 | 154599
6 | 34:21.25 | 6:45.00 | 154600 | 184974
7 | 41:06.25 | 5:44.00 | 184975 | 210774
8 | 46:50.25 | 5:19.52 | 210775 | 234751
Характеристики диапазона извлечения и сообщения об ошибках
Выбранный диапазон
Имя файла J:\Bipin'-95\Bipin' - Quatro Elementos.wav
Пиковый уровень 94.4 %
Качество диапазона 100.0 %
CRC копии E15E9983
Копирование... OK
Ошибок не произошло
AccurateRip: сводка
Трек 1 нет в базе данных
Трек 2 нет в базе данных
Трек 3 нет в базе данных
Трек 4 нет в базе данных
Трек 5 нет в базе данных
Трек 6 нет в базе данных
Трек 7 нет в базе данных
Трек 8 нет в базе данных
Ни одного трека нет в базе AccurateRip
Конец отчёта
 
auCDtect
-----------------------
DON'T MODIFY THIS FILE
-----------------------
PERFORMER: auCDtect Task Manager, ver. 1.0.1 RC1 build 1.0.1.1
Copyright (c) 2008, 2009 y-soft. All rights reserved
http://y-soft.110mb.com
ANALYZER: auCDtect: CD records authenticity detector, version 0.8.2
Copyright (c) 2004 Oleg Berngardt. All rights reserved.
Copyright (c) 2004 Alexander Djourik. All rights reserved.
FILE: Bipin' - Quatro Elementos.flac
Size: 321528881 Hash: 08C7B3D8087BA0C462DD652F06AE649E Accuracy: -m0
Conclusion: CDDA 100%
Signature: 968B0135307A341965BFA95E791F3540E6923AAA
16:26
303
Нет комментариев. Ваш будет первым!