Поиск

(Cuban /Classical) Chucho Valdes - Virtuoso - 2005, WAVPack (image+.cue), lossless

Треклист:
Chucho Valdes - Virtuoso
Жанр: Cuban /Classical
Год выпуска диска: 2005
Производитель диска: U.S.A. Escondida Music / ESC 6518-2
Аудио кодек: WAVPack
Тип рипа: image+.cue
Битрейт аудио: lossless
Трэклист:
1. Balada Para Caridad Y Emilio [0:02:42.59]
2. El Bolero [0:04:47.36]
3. Realidad [0:01:59.04]
4. Improvisacion [0:03:33.39]
5. Niebla [0:01:43.36]
6. Solamente Una Vez [0:03:51.09]
7. Como Fue [0:04:33.06]
8. El Dia Que Me Quieras [0:05:55.47]
9. Tu Me Acostumbraste [0:03:37.22]
10. Sentimental [0:02:00.00]
11. Tres Palabras [0:02:29.63]
12. El Manisero [0:03:33.36]
13. Dos Perlas Y Un Dolor [0:03:08.07]
14. Novia Mia [0:03:29.71]
15. Tu Mi Delirio [0:03:05.32]
CUE
 
скрытый текст
REM GENRE "Jazz"
REM DATE 2005
REM DISCID E60BD60F
REM COMMENT "ExactAudioCopy v0.99pb5"
PERFORMER "Chucho Valdes"
TITLE "Virtuoso"
FILE "Chucho Valdes - Virtuoso.wv" WAVE
TRACK 01 AUDIO
TITLE "Balada Para Caridad Y Emilio"
PERFORMER "Chucho Valdes"
ISRC 000000000000
INDEX 01 00:00:00
TRACK 02 AUDIO
TITLE "El Bolero"
PERFORMER "Chucho Valdes"
ISRC 000000000000
INDEX 01 02:42:59
TRACK 03 AUDIO
TITLE "Realidad"
PERFORMER "Chucho Valdes"
ISRC 000000000000
INDEX 01 07:30:20
TRACK 04 AUDIO
TITLE "Improvisacion"
PERFORMER "Chucho Valdes"
ISRC 000000000000
INDEX 01 09:29:24
TRACK 05 AUDIO
TITLE "Niebla"
PERFORMER "Chucho Valdes"
ISRC 000000000000
INDEX 01 13:02:63
TRACK 06 AUDIO
TITLE "Solamente Una Vez"
PERFORMER "Chucho Valdes"
ISRC 000000000000
INDEX 01 14:46:24
TRACK 07 AUDIO
TITLE "Como Fue"
PERFORMER "Chucho Valdes"
ISRC 000000000000
INDEX 01 18:37:33
TRACK 08 AUDIO
TITLE "El Dia Que Me Quieras"
PERFORMER "Chucho Valdes"
ISRC 000000000000
INDEX 01 23:10:39
TRACK 09 AUDIO
TITLE "Tu Me Acostumbraste"
PERFORMER "Chucho Valdes"
ISRC 000000000000
INDEX 01 29:06:11
TRACK 10 AUDIO
TITLE "Sentimental"
PERFORMER "Chucho Valdes"
ISRC 000000000000
INDEX 01 32:43:33
TRACK 11 AUDIO
TITLE "Tres Palabras"
PERFORMER "Chucho Valdes"
ISRC 000000000000
INDEX 01 34:43:33
TRACK 12 AUDIO
TITLE "El Manisero"
PERFORMER "Chucho Valdes"
ISRC 000000000000
INDEX 01 37:13:21
TRACK 13 AUDIO
TITLE "Dos Perlas Y Un Dolor"
PERFORMER "Chucho Valdes"
ISRC 000000000000
INDEX 01 40:46:57
TRACK 14 AUDIO
TITLE "Novia Mia"
PERFORMER "Chucho Valdes"
ISRC 000000000000
INDEX 01 43:54:64
TRACK 15 AUDIO
TITLE "Tu Mi Delirio"
PERFORMER "Chucho Valdes"
ISRC 000000000000
INDEX 01 47:24:60
LOG
 
скрытый текст
Exact Audio Copy V0.99 prebeta 5 from 4. May 2009
EAC extraction logfile from 27. April 2010, 12:42
Chucho Valdes / Virtuoso
Used drive : HL-DT-STDVD-RAM GH22LP20 Adapter: 4 ID: 1
Read mode : Secure
Utilize accurate stream : Yes
Defeat audio cache : Yes
Make use of C2 pointers : No
Read offset correction : 102
Overread into Lead-In and Lead-Out : No
Fill up missing offset samples with silence : Yes
Delete leading and trailing silent blocks : No
Null samples used in CRC calculations : Yes
Used interface : Installed external ASPI interface
Used output format : User Defined Encoder
Selected bitrate : 896 kBit/s
Quality : High
Add ID3 tag : No
Command line compressor : C:\Program Files (x86)\Exact Audio Copy\WAV Pack\wavpack.exe
Additional command line options : -hlmx2 %s
TOC of the extracted CD
Track | Start | Length | Start sector | End sector
---------------------------------------------------------
1 | 0:00.00 | 2:42.59 | 0 | 12208
2 | 2:42.59 | 4:47.36 | 12209 | 33769
3 | 7:30.20 | 1:59.04 | 33770 | 42698
4 | 9:29.24 | 3:33.39 | 42699 | 58712
5 | 13:02.63 | 1:43.36 | 58713 | 66473
6 | 14:46.24 | 3:51.09 | 66474 | 83807
7 | 18:37.33 | 4:33.06 | 83808 | 104288
8 | 23:10.39 | 5:55.47 | 104289 | 130960
9 | 29:06.11 | 3:37.22 | 130961 | 147257
10 | 32:43.33 | 2:00.00 | 147258 | 156257
11 | 34:43.33 | 2:29.63 | 156258 | 167495
12 | 37:13.21 | 3:33.36 | 167496 | 183506
13 | 40:46.57 | 3:08.07 | 183507 | 197613
14 | 43:54.64 | 3:29.71 | 197614 | 213359
15 | 47:24.60 | 3:05.32 | 213360 | 227266
Range status and errors
Selected range
Filename X:\Releases RAW\Chucho Valdes - Virtuoso\Chucho Valdes - Virtuoso.wav
Peak level 99.1 %
Range quality 100.0 %
Test CRC 65CA5C02
Copy CRC 65CA5C02
Copy OK
No errors occurred
AccurateRip summary
Track 1 not present in database
Track 2 not present in database
Track 3 not present in database
Track 4 not present in database
Track 5 not present in database
Track 6 not present in database
Track 7 not present in database
Track 8 not present in database
Track 9 not present in database
Track 10 not present in database
Track 11 not present in database
Track 12 not present in database
Track 13 not present in database
Track 14 not present in database
Track 15 not present in database
None of the tracks are present in the AccurateRip database
End of status report
спасибо и Гордый
На раздаче никого нет - пишите в личку
15:27
281
Нет комментариев. Ваш будет первым!