Поиск

(Jazz-Pop / Bossa Nova / Latin Jazz) Antonia Adnet - Discreta - 2009, FLAC (tracks+.cue), lossless

Треклист:
Antonia Adnet - Discreta
Жанр: Jazz-Pop / Bossa Nova / Latin Jazz
Год выпуска : 2009
Аудио кодек: FLAC
Тип рипа: tracks+.cue
Битрейт аудио: lossless
Продолжительность: 00:42:34
Рип: MRmarket - What CD


01. Carnavalzinho (Meu Carnaval) (2:46)
02. Um Dia Quem Sabe (3:46)
03. Discreta (4:11)
04. Vitrine (3:15)
05. Dois (3:13)
06. Vem e Vai (3:40)
07. Pessoas Incriveis (3:58)
08. Primeiro Choro (3:06)
09. Quero um Xamego (4:13)
10. Bom Assim (2:44)
11. Salineiras (3:44)
12. Tema de Outono (3:59)

 
EAC
Exact Audio Copy V0.99 prebeta 5 from 4. May 2009
EAC extraction logfile from 27. February 2010, 16:05
Antonia Adnet / Antonia Adnet
Used drive : HL-DT-STDVDRRW GSA-H30L Adapter: 2 ID: 0
Read mode : Secure
Utilize accurate stream : Yes
Defeat audio cache : Yes
Make use of C2 pointers : No
Read offset correction : 102
Overread into Lead-In and Lead-Out : Yes
Fill up missing offset samples with silence : Yes
Delete leading and trailing silent blocks : No
Null samples used in CRC calculations : Yes
Used interface : Native Win32 interface for Win NT & 2000
Gap handling : Appended to previous track
Used output format : User Defined Encoder
Selected bitrate : 320 kBit/s
Quality : High
Add ID3 tag : No
Command line compressor : C:\Program Files\Exact Audio Copy\Flac\flac.exe
Additional command line options : -V -8 -T "artist=%a" -T "title=%t" -T "album=%g" -T "date=%y" -T "tracknumber=%n" -T "genre=%m" %s
TOC of the extracted CD
Track | Start | Length | Start sector | End sector
---------------------------------------------------------
1 | 0:00.00 | 2:45.65 | 0 | 12439
2 | 2:45.65 | 3:45.42 | 12440 | 29356
3 | 6:31.32 | 4:10.71 | 29357 | 48177
4 | 10:42.28 | 3:15.16 | 48178 | 62818
5 | 13:57.44 | 3:13.15 | 62819 | 77308
6 | 17:10.59 | 3:39.61 | 77309 | 93794
7 | 20:50.45 | 3:58.04 | 93795 | 111648
8 | 24:48.49 | 3:06.10 | 111649 | 125608
9 | 27:54.59 | 4:12.40 | 125609 | 144548
10 | 32:07.24 | 2:44.27 | 144549 | 156875
11 | 34:51.51 | 3:43.67 | 156876 | 173667
12 | 38:35.43 | 3:59.29 | 173668 | 191621
Track 1
Filename Z:\media\35f441f4-66aa-415c-900d-a8bdfa33e4cd\test\Antonia Adnet - Antonia Adnet - 2009\01. Carnavalzinho (Meu Carnaval).wav
Pre-gap length 0:00:02.00
Peak level 97.7 %
Track quality 99.9 %
Test CRC 1689FF59
Copy CRC 1689FF59
Track not present in AccurateRip database
Copy OK
Track 2
Filename Z:\media\35f441f4-66aa-415c-900d-a8bdfa33e4cd\test\Antonia Adnet - Antonia Adnet - 2009\02. Um Dia Quem Sabe.wav
Peak level 97.7 %
Track quality 100.0 %
Test CRC BCBF8716
Copy CRC BCBF8716
Track not present in AccurateRip database
Copy OK
Track 3
Filename Z:\media\35f441f4-66aa-415c-900d-a8bdfa33e4cd\test\Antonia Adnet - Antonia Adnet - 2009\03. Discreta.wav
Peak level 97.7 %
Track quality 100.0 %
Test CRC 8CD7E65A
Copy CRC 8CD7E65A
Track not present in AccurateRip database
Copy OK
Track 4
Filename Z:\media\35f441f4-66aa-415c-900d-a8bdfa33e4cd\test\Antonia Adnet - Antonia Adnet - 2009\04. Vitrine.wav
Pre-gap length 0:00:01.60
Peak level 97.7 %
Track quality 100.0 %
Test CRC 04FBAD50
Copy CRC 04FBAD50
Track not present in AccurateRip database
Copy OK
Track 5
Filename Z:\media\35f441f4-66aa-415c-900d-a8bdfa33e4cd\test\Antonia Adnet - Antonia Adnet - 2009\05. Dois.wav
Pre-gap length 0:00:02.22
Peak level 97.7 %
Track quality 100.0 %
Test CRC DD2D692E
Copy CRC DD2D692E
Track not present in AccurateRip database
Copy OK
Track 6
Filename Z:\media\35f441f4-66aa-415c-900d-a8bdfa33e4cd\test\Antonia Adnet - Antonia Adnet - 2009\06. Vem e Vai.wav
Pre-gap length 0:00:02.17
Peak level 97.7 %
Track quality 99.9 %
Test CRC D44A7350
Copy CRC D44A7350
Track not present in AccurateRip database
Copy OK
Track 7
Filename Z:\media\35f441f4-66aa-415c-900d-a8bdfa33e4cd\test\Antonia Adnet - Antonia Adnet - 2009\07. Pessoas Incriveis.wav
Pre-gap length 0:00:01.23
Peak level 97.7 %
Track quality 99.9 %
Test CRC 08962DD8
Copy CRC 08962DD8
Track not present in AccurateRip database
Copy OK
Track 8
Filename Z:\media\35f441f4-66aa-415c-900d-a8bdfa33e4cd\test\Antonia Adnet - Antonia Adnet - 2009\08. Primeiro Choro.wav
Pre-gap length 0:00:01.44
Peak level 97.7 %
Track quality 100.0 %
Test CRC FC15416E
Copy CRC FC15416E
Track not present in AccurateRip database
Copy OK
Track 9
Filename Z:\media\35f441f4-66aa-415c-900d-a8bdfa33e4cd\test\Antonia Adnet - Antonia Adnet - 2009\09. Quero um Xamego.wav
Pre-gap length 0:00:02.13
Peak level 97.7 %
Track quality 100.0 %
Test CRC 29794793
Copy CRC 29794793
Track not present in AccurateRip database
Copy OK
Track 10
Filename Z:\media\35f441f4-66aa-415c-900d-a8bdfa33e4cd\test\Antonia Adnet - Antonia Adnet - 2009\10. Bom Assim.wav
Pre-gap length 0:00:01.44
Peak level 97.7 %
Track quality 99.9 %
Test CRC A06ED273
Copy CRC A06ED273
Track not present in AccurateRip database
Copy OK
Track 11
Filename Z:\media\35f441f4-66aa-415c-900d-a8bdfa33e4cd\test\Antonia Adnet - Antonia Adnet - 2009\11. Salineiras.wav
Pre-gap length 0:00:02.44
Peak level 97.7 %
Track quality 100.0 %
Test CRC A2359337
Copy CRC A2359337
Track not present in AccurateRip database
Copy OK
Track 12
Filename Z:\media\35f441f4-66aa-415c-900d-a8bdfa33e4cd\test\Antonia Adnet - Antonia Adnet - 2009\12. Tema de Outono.wav
Pre-gap length 0:00:01.39
Peak level 97.7 %
Track quality 99.9 %
Test CRC A523977B
Copy CRC A523977B
Track not present in AccurateRip database
Copy OK
None of the tracks are present in the AccurateRip database
No errors occurred
End of status report
 
CUE
REM DATE 2009
REM DISCID A309FA0C
REM COMMENT "ExactAudioCopy v0.99pb5"
PERFORMER "Antonia Adnet"
TITLE "Discreta"
FILE "01. Carnavalzinho (Meu Carnaval).wav" WAVE
TRACK 01 AUDIO
TITLE "Carnavalzinho (Meu Carnaval)"
PERFORMER "Antonia Adnet"
INDEX 01 00:00:00
FILE "02. Um Dia Quem Sabe.wav" WAVE
TRACK 02 AUDIO
TITLE "Um Dia Quem Sabe"
PERFORMER "Antonia Adnet"
INDEX 01 00:00:00
FILE "03. Discreta.wav" WAVE
TRACK 03 AUDIO
TITLE "Discreta"
PERFORMER "Antonia Adnet"
INDEX 01 00:00:00
TRACK 04 AUDIO
TITLE "Vitrine"
PERFORMER "Antonia Adnet"
INDEX 00 04:09:11
FILE "04. Vitrine.wav" WAVE
INDEX 01 00:00:00
TRACK 05 AUDIO
TITLE "Dois"
PERFORMER "Antonia Adnet"
INDEX 00 03:12:69
FILE "05. Dois.wav" WAVE
INDEX 01 00:00:00
TRACK 06 AUDIO
TITLE "Vem e Vai"
PERFORMER "Antonia Adnet"
INDEX 00 03:10:73
FILE "06. Vem e Vai.wav" WAVE
INDEX 01 00:00:00
TRACK 07 AUDIO
TITLE "Pessoas Incriveis"
PERFORMER "Antonia Adnet"
INDEX 00 03:38:38
FILE "07. Pessoas Incriveis.wav" WAVE
INDEX 01 00:00:00
TRACK 08 AUDIO
TITLE "Primeiro Choro"
PERFORMER "Antonia Adnet"
INDEX 00 03:56:35
FILE "08. Primeiro Choro.wav" WAVE
INDEX 01 00:00:00
TRACK 09 AUDIO
TITLE "Quero um Xamego"
PERFORMER "Antonia Adnet"
INDEX 00 03:03:72
FILE "09. Quero um Xamego.wav" WAVE
INDEX 01 00:00:00
TRACK 10 AUDIO
TITLE "Bom Assim"
PERFORMER "Antonia Adnet"
INDEX 00 04:10:71
FILE "10. Bom Assim.wav" WAVE
INDEX 01 00:00:00
TRACK 11 AUDIO
TITLE "Salineiras"
PERFORMER "Antonia Adnet"
INDEX 00 02:41:58
FILE "11. Salineiras.wav" WAVE
INDEX 01 00:00:00
TRACK 12 AUDIO
TITLE "Tema de Outono"
PERFORMER "Antonia Adnet"
INDEX 00 03:42:28
FILE "12. Tema de Outono.wav" WAVE
INDEX 01 00:00:00
 
Audiochecker
Started at: воскресенье, 28. 02. 2010. - 20:44.57
12 files found
01 -===- C:\Downloads\Music\Джаз\Antonia Adnet - Discreta - 2009\01. Carnavalzinho (Meu Carnaval).flac
Extracted successfully
Conclusion: This track looks like CDDA with probability 100%
Tempfile successfully deleted.
02 -===- C:\Downloads\Music\Джаз\Antonia Adnet - Discreta - 2009\02. Um Dia Quem Sabe.flac
Extracted successfully
Conclusion: This track looks like CDDA with probability 100%
Tempfile successfully deleted.
03 -===- C:\Downloads\Music\Джаз\Antonia Adnet - Discreta - 2009\03. Discreta.flac
Extracted successfully
Conclusion: This track looks like CDDA with probability 100%
Tempfile successfully deleted.
04 -===- C:\Downloads\Music\Джаз\Antonia Adnet - Discreta - 2009\04. Vitrine.flac
Extracted successfully
Conclusion: This track looks like CDDA with probability 100%
Tempfile successfully deleted.
05 -===- C:\Downloads\Music\Джаз\Antonia Adnet - Discreta - 2009\05. Dois.flac
Extracted successfully
Conclusion: This track looks like CDDA with probability 100%
Tempfile successfully deleted.
06 -===- C:\Downloads\Music\Джаз\Antonia Adnet - Discreta - 2009\06. Vem e Vai.flac
Extracted successfully
Conclusion: This track looks like CDDA with probability 100%
Tempfile successfully deleted.
07 -===- C:\Downloads\Music\Джаз\Antonia Adnet - Discreta - 2009\07. Pessoas Incriveis.flac
Extracted successfully
Conclusion: This track looks like CDDA with probability 100%
Tempfile successfully deleted.
08 -===- C:\Downloads\Music\Джаз\Antonia Adnet - Discreta - 2009\08. Primeiro Choro.flac
Extracted successfully
Conclusion: This track looks like CDDA with probability 100%
Tempfile successfully deleted.
09 -===- C:\Downloads\Music\Джаз\Antonia Adnet - Discreta - 2009\09. Quero um Xamego.flac
Extracted successfully
Conclusion: This track looks like CDDA with probability 99%
Tempfile successfully deleted.
10 -===- C:\Downloads\Music\Джаз\Antonia Adnet - Discreta - 2009\10. Bom Assim.flac
Extracted successfully
Conclusion: This track looks like CDDA with probability 99%
Tempfile successfully deleted.
11 -===- C:\Downloads\Music\Джаз\Antonia Adnet - Discreta - 2009\11. Salineiras.flac
Extracted successfully
Conclusion: This track looks like CDDA with probability 100%
Tempfile successfully deleted.
12 -===- C:\Downloads\Music\Джаз\Antonia Adnet - Discreta - 2009\12. Tema de Outono.flac
Extracted successfully
Conclusion: This track looks like CDDA with probability 100%
Tempfile successfully deleted.
Finished at: воскресенье, 28. 02. 2010. - 20:53.16 (operation time: 0:08.18)
12:53
288
Нет комментариев. Ваш будет первым!