Поиск

(Bossa Nova / Latin Jazz) Sergio Mendes - Herb Alpert Presents Sergio Mendes & Brasil '66 (Japan, Ltd ed., remastered 2006) - 1966, FLAC (tracks+.cue), lossless

(Bossa Nova / Latin Jazz) Sergio Mendes - Herb Alpert Presents Sergio Mendes & Brasil '66 (Japan, Ltd ed., remastered 2006) - 1966, FLAC (tracks+.cue), lossless
Треклист:
Sergio Mendes - Herb Alpert Presents Sergio Mendes & Brasil '66 (Japan, remastered 2006)
Жанр: Bossa Nova / Latin Jazz
Год выпуска альбома: 1966
Год выпуска диска: 2006
Производитель диска: Japan (Universal Music: UICY-93145)
Аудио кодек: FLAC
Тип рипа: tracks+.cue
Битрейт аудио: lossless
Продолжительность: 25:26
Трэклист:
01 Mas Que Nada [Ma-Sh Kay Nada] (Ben) 2:41
02 One Note Samba/Spanish Flea (Jobim, Mendonça, Wechter) 1:49
03 The Joker (Bricusse, Newley) 2:42
04 Going out of My Head (Randazzo, Weinstein) 3:07
05 Tim Dom Dom [Chim Dome Dome] (Brito, Mello) 1:56
06 Day Tripper (Lennon, McCartney) 3:07
07 Agua de Beber [Agwa Gee Bebérr] (Water to Drink) (DeMoraes, Gimbel, Jobim) 2:32
08 Slow Hot Wind (Gimbel, Mancini) 2:34
09 O Pato [O Pawtoo] (The Duck) (Silva, Teixeira) 2:00
10 Berimbau [Ber-Im-Bough] (DeMoraes, Gilbert, Powell) 3:16
Band:
Sergio Mendes - Arranger, Keyboards, Vocals
Lani Hall - Vocals
Janis Hansen - Vocals
Bob Matthews - Bass, Vocals
João Palma - Drums
Jose Soares - Percussion, Vocals
Bruce Botnick - Engineer
Доп. информация:
Рип с моего диска, HQ сканы с текстами песен прилагаются.
Альтернативное издание - http://rutracker.org/forum/viewtopic.php?t=1125268
 
Амплитуда
 
EAC Log
Код:
Exact Audio Copy V0.99 prebeta 5 from 4. May 2009
EAC extraction logfile from 18. February 2010, 17:21
Sergio Mendes & Brasil '66 / Herb Alpert Presents Sergio Mendes & Brasil '66
Used drive  : _NEC    CDRW/DVD CB1100A   Adapter: 0  ID: 0
Read mode               : Secure
Utilize accurate stream : Yes
Defeat audio cache      : Yes
Make use of C2 pointers : No
Read offset correction                      : 6
Overread into Lead-In and Lead-Out          : No
Fill up missing offset samples with silence : Yes
Delete leading and trailing silent blocks   : No
Null samples used in CRC calculations       : Yes
Used interface                              : Installed external ASPI interface
Gap handling                                : Appended to previous track
Used output format : Internal WAV Routines
Sample format      : 44.100 Hz; 16 Bit; Stereo
TOC of the extracted CD
     Track |   Start  |  Length  | Start sector | End sector
    ---------------------------------------------------------
        1  |  0:00.00 |  2:37.07 |         0    |    11781
        2  |  2:37.07 |  1:46.63 |     11782    |    19794
        3  |  4:23.70 |  2:39.62 |     19795    |    31781
        4  |  7:03.57 |  3:04.10 |     31782    |    45591
        5  | 10:07.67 |  1:52.65 |     45592    |    54056
        6  | 12:00.57 |  3:06.28 |     54057    |    68034
        7  | 15:07.10 |  2:29.57 |     68035    |    79266
        8  | 17:36.67 |  2:35.40 |     79267    |    90931
        9  | 20:12.32 |  1:58.48 |     90932    |    99829
       10  | 22:11.05 |  3:14.65 |     99830    |   114444
Track  1
     Filename D:\flac\Sergio Mendes 1966 Herb Alpert Presents (remastered 2006)\01 - Mais Que Nada.wav
     Pre-gap length  0:00:02.00
     Peak level 97.7 %
     Track quality 100.0 %
     Test CRC E7E5007B
     Copy CRC E7E5007B
     Accurately ripped (confidence 1)  [84FC5978]
     Copy OK
Track  2
     Filename D:\flac\Sergio Mendes 1966 Herb Alpert Presents (remastered 2006)\02 - One Note Samba , Spanish Flea.wav
     Pre-gap length  0:00:01.36
     Peak level 97.7 %
     Track quality 100.0 %
     Test CRC 222B8880
     Copy CRC 222B8880
     Accurately ripped (confidence 1)  [C579A9D7]
     Copy OK
Track  3
     Filename D:\flac\Sergio Mendes 1966 Herb Alpert Presents (remastered 2006)\03 - The Joker.wav
     Pre-gap length  0:00:00.64
     Peak level 97.7 %
     Track quality 100.0 %
     Test CRC 7450305F
     Copy CRC 7450305F
     Accurately ripped (confidence 1)  [6145A398]
     Copy OK
Track  4
     Filename D:\flac\Sergio Mendes 1966 Herb Alpert Presents (remastered 2006)\04 - Going Out of My Head.wav
     Pre-gap length  0:00:01.54
     Peak level 97.7 %
     Track quality 100.0 %
     Test CRC 6D7F01C1
     Copy CRC 6D7F01C1
     Accurately ripped (confidence 1)  [4C4E1CD5]
     Copy OK
Track  5
     Filename D:\flac\Sergio Mendes 1966 Herb Alpert Presents (remastered 2006)\05 - Tim Dom Dom.wav
     Pre-gap length  0:00:00.61
     Peak level 97.7 %
     Track quality 99.9 %
     Test CRC 64BF8ADF
     Copy CRC 64BF8ADF
     Accurately ripped (confidence 1)  [4BE7BA4A]
     Copy OK
Track  6
     Filename D:\flac\Sergio Mendes 1966 Herb Alpert Presents (remastered 2006)\06 - Daytripper.wav
     Peak level 97.7 %
     Track quality 100.0 %
     Test CRC 0B465C01
     Copy CRC 0B465C01
     Accurately ripped (confidence 1)  [E9BE3451]
     Copy OK
Track  7
     Filename D:\flac\Sergio Mendes 1966 Herb Alpert Presents (remastered 2006)\07 - Agua De Beber.wav
     Pre-gap length  0:00:00.62
     Peak level 97.7 %
     Track quality 99.9 %
     Test CRC D0782D93
     Copy CRC D0782D93
     Accurately ripped (confidence 1)  [D5EA18D5]
     Copy OK
Track  8
     Filename D:\flac\Sergio Mendes 1966 Herb Alpert Presents (remastered 2006)\08 - Slow Hot Wind.wav
     Pre-gap length  0:00:00.61
     Peak level 97.7 %
     Track quality 100.0 %
     Test CRC AA664F71
     Copy CRC AA664F71
     Accurately ripped (confidence 1)  [D7ADB9CD]
     Copy OK
Track  9
     Filename D:\flac\Sergio Mendes 1966 Herb Alpert Presents (remastered 2006)\09 - O Patu.wav
     Pre-gap length  0:00:03.26
     Peak level 97.7 %
     Track quality 99.9 %
     Test CRC A0683683
     Copy CRC A0683683
     Accurately ripped (confidence 1)  [619DCF76]
     Copy OK
Track 10
     Filename D:\flac\Sergio Mendes 1966 Herb Alpert Presents (remastered 2006)\10 - Berimbau.wav
     Pre-gap length  0:00:01.04
     Peak level 97.7 %
     Track quality 99.8 %
     Test CRC 0C61EC38
     Copy CRC 0C61EC38
     Accurately ripped (confidence 1)  [5581B2D5]
     Copy OK
All tracks accurately ripped
No errors occurred
End of status report
 
CUE
REM GENRE Latin
REM DATE 1966
REM DISCID 7505F50A
REM COMMENT "ExactAudioCopy v0.99pb5"
CATALOG 4988005311627
PERFORMER "Sergio Mendes & Brasil '66"
TITLE "Herb Alpert Presents Sergio Mendes & Brasil '66"
FILE "01 - Mais Que Nada.wav" WAVE
TRACK 01 AUDIO
TITLE "Mais Que Nada"
PERFORMER "Sergio Mendes & Brasil '66"
INDEX 01 00:00:00
TRACK 02 AUDIO
TITLE "One Note Samba / Spanish Flea"
PERFORMER "Sergio Mendes & Brasil '66"
INDEX 00 02:35:46
FILE "02 - One Note Samba , Spanish Flea.wav" WAVE
INDEX 01 00:00:00
TRACK 03 AUDIO
TITLE "The Joker"
PERFORMER "Sergio Mendes & Brasil '66"
INDEX 00 01:45:74
FILE "03 - The Joker.wav" WAVE
INDEX 01 00:00:00
TRACK 04 AUDIO
TITLE "Going Out of My Head"
PERFORMER "Sergio Mendes & Brasil '66"
INDEX 00 02:38:08
FILE "04 - Going Out of My Head.wav" WAVE
INDEX 01 00:00:00
TRACK 05 AUDIO
TITLE "Tim Dom Dom"
PERFORMER "Sergio Mendes & Brasil '66"
INDEX 00 03:03:24
FILE "05 - Tim Dom Dom.wav" WAVE
INDEX 01 00:00:00
FILE "06 - Daytripper.wav" WAVE
TRACK 06 AUDIO
TITLE "Daytripper"
PERFORMER "Sergio Mendes & Brasil '66"
INDEX 01 00:00:00
TRACK 07 AUDIO
TITLE "Agua De Beber"
PERFORMER "Sergio Mendes & Brasil '66"
INDEX 00 03:05:41
FILE "07 - Agua De Beber.wav" WAVE
INDEX 01 00:00:00
TRACK 08 AUDIO
TITLE "Slow Hot Wind"
PERFORMER "Sergio Mendes & Brasil '66"
INDEX 00 02:28:71
FILE "08 - Slow Hot Wind.wav" WAVE
INDEX 01 00:00:00
TRACK 09 AUDIO
TITLE "O Patu"
PERFORMER "Sergio Mendes & Brasil '66"
INDEX 00 02:32:14
FILE "09 - O Patu.wav" WAVE
INDEX 01 00:00:00
TRACK 10 AUDIO
TITLE "Berimbau"
PERFORMER "Sergio Mendes & Brasil '66"
INDEX 00 01:57:44
FILE "10 - Berimbau.wav" WAVE
INDEX 01 00:00:00
 
AccurateRip Log
[Verification date: 01.03.2010 23:58:49]
[Disc ID: 0009645d-004b8178-7505f50a]
Track [ CRC ] Status
01 [84fc5978] (01/01) Accurately ripped as in pressing(s) #1
02 [c579a9d7] (01/01) Accurately ripped as in pressing(s) #1
03 [6145a398] (01/01) Accurately ripped as in pressing(s) #1
04 [4c4e1cd5] (01/01) Accurately ripped as in pressing(s) #1
05 [4be7ba4a] (01/01) Accurately ripped as in pressing(s) #1
06 [e9be3451] (01/01) Accurately ripped as in pressing(s) #1
07 [d5ea18d5] (01/01) Accurately ripped as in pressing(s) #1
08 [d7adb9cd] (01/01) Accurately ripped as in pressing(s) #1
09 [619dcf76] (01/01) Accurately ripped as in pressing(s) #1
10 [5581b2d5] (01/01) Accurately ripped as in pressing(s) #1
Track [ CRC32 ] [W/O NULL]
-- [2D87B098] [2B7F5F3E]
01 [E7E5007B] [F68A73CE]
02 [222B8880] [03D434EF]
03 [7450305F] [B60F535F]
04 [6D7F01C1] [068BC015]
05 [64BF8ADF] [CD19BCA3]
06 [0B465C01] [67751322]
07 [D0782D93] [5E0EC4B0]
08 [AA664F71] [A723C21B]
09 [A0683683] [D00950BC]
10 [0C61EC38] [64D11265]
12:54
405
Нет комментариев. Ваш будет первым!