Вы используете незарегистрированную версию компонента "Вкладки"!

Поиск

(Jazz) Mozdzer Danielsson Fresco - The Time - 2005, APE (image+.cue), lossless

(Jazz) Mozdzer Danielsson Fresco - The Time - 2005, APE (image+.cue), lossless
Треклист:
Mozdzer Danielsson Fresco - The Time
Жанр: Contemporary Jazz
Год выпуска диска: 2005
Производитель диска: Poland
Аудио кодек: APE
Тип рипа: image+.cue
Битрейт аудио: lossless
Продолжительность: 56:36
Трэклист:
01. Asta (Lars Danielsson) [6:37]
02. Incognitor (Leszek Mozdzer) [5:18]
03. Sortorello (anonim XIII w.) [3:22]
04. Tsunami (Leszek Mozdzer) [5:02]
05. The Time (Leszek Mozdzer, Zohar Fresco) [2:50]
06. Asta II (Lars Danielsson) [2:55]
07. Easy Money (Leszek Mozdzer) [4:01]
08. Smells Like Teen Spirit (Kurt Cobain, Chris Novoselic, David Grohl) [6:32]
09. Svantetic (Krzysztof Komeda) [4:43]
10. Suffering (Lars Danielsson) [4:58]
11. Trip To Bexbach (Leszek Mozdzer) [4:16]
12. Asta III (Lars Danielsson) [4:00]
13. Suffering [bonus track] (Lars Danielsson) [1:56]
Personnel:
Leszek Mozdzer - piano
Lars Danielsson - double bass, cello
Zohar Fresco - percussion, vocals
Доп. информация:
Ах, как давно я разыскивал эту фантастическую троицу в lossless!
Спасибо ослосети и SurowyTato!
 
EAC extraction logfile
Exact Audio Copy V0.99 prebeta 3 from 28. July 2007
EAC extraction logfile from 27. December 2007, 22:52
Mozdzer Danielsson Fresco / The Time
Used drive : PLEXTOR DVDR PX-810SA Adapter: 1 ID: 0
Read mode : Secure
Utilize accurate stream : Yes
Defeat audio cache : Yes
Make use of C2 pointers : No
Read offset correction : 48
Overread into Lead-In and Lead-Out : No
Fill up missing offset samples with silence : Yes
Delete leading and trailing silent blocks : No
Null samples used in CRC calculations : Yes
Used interface : Installed external ASPI interface
Used output format : Internal WAV Routines
Sample format : 44.100 Hz; 16 Bit; Stereo
TOC of the extracted CD
Track | Start | Length | Start sector | End sector
---------------------------------------------------------
1 | 0:00.00 | 6:37.37 | 0 | 29811
2 | 6:37.37 | 5:18.10 | 29812 | 53671
3 | 11:55.47 | 3:22.45 | 53672 | 68866
4 | 15:18.17 | 5:02.65 | 68867 | 91581
5 | 20:21.07 | 2:50.25 | 91582 | 104356
6 | 23:11.32 | 2:55.30 | 104357 | 117511
7 | 26:06.62 | 4:01.20 | 117512 | 135606
8 | 30:08.07 | 6:32.50 | 135607 | 165056
9 | 36:40.57 | 4:43.63 | 165057 | 186344
10 | 41:24.45 | 4:58.62 | 186345 | 208756
11 | 46:23.32 | 4:16.30 | 208757 | 227986
12 | 50:39.62 | 4:00.40 | 227987 | 246026
13 | 54:40.27 | 1:56.33 | 246027 | 254759
Range status and errors
Selected range
Filename E:\INCOMING\EAC\Mozdzer Danielsson Fresco - The Time.wav
Peak level 100.0 %
Range quality 99.9 %
Test CRC 341FF80D
Copy CRC 341FF80D
Copy OK
No errors occurred
End of status report
Здесь- видеовариант.
Приятных впечатлений!
Any questions -> support@pro-jazz.com. По всем вопросам пишите -> support@pro-jazz.com
10:56
220
Нет комментариев. Ваш будет первым!