Вы используете незарегистрированную версию компонента "Вкладки"!

Поиск

(Jazz, Bop, Hard Bop) The Roger Kellaway Trio - The Roger Kellaway Trio - 1965, FLAC (image+.cue), lossless

(Jazz, Bop, Hard Bop) The Roger Kellaway Trio - The Roger Kellaway Trio - 1965, FLAC (image+.cue), lossless
Треклист:
The Roger Kellaway Trio - The Roger Kellaway Trio
Жанр: Jazz, Bop, Hard Bop
Год выпуска диска: 1965
Производитель диска: Prestige
Аудио кодек: FLAC
Тип рипа: image+.cue
Битрейт аудио: lossless
Продолжительность: 40:30
Трэклист:
01. Organ Morgan
02. One Night Stand
03. I'll Follow The Sun
04. Brats
05. Can't You See It
06. Sweet And Lovely
07. Sigma O.N.
08. Ballad Of The Sad Young Men
09. No More
10. The Fall Of Love
 
Отчет EAC
Exact Audio Copy V0.99 prebeta 3 from 28. July 2007
Отчёт EAC об извлечении, выполненном 7. января 2009, 19:06
Roger kellaway / Roger kellaway Trio
Дисковод: HL-DT-STDVD-RAM GSA-H55N Adapter: 0 ID: 0
Режим чтения : Достоверность
Использование точного потока : Да
Отключение кэша аудио : Да
Использование указателей C2 : Нет
Коррекция смещения при чтении : 102
Способность читать области Lead-in и Lead-out : Нет
Заполнение пропущенных сэмплов тишиной : Да
Удаление блоков с тишиной в начале и конце : Нет
При вычислениях CRC использовались нулевые сэмплы : Нет
Интерфейс : Установленный внешний ASPI-интерфейс
Выходной формат : Пользовательский кодировщик
Выбранный битрейт : 768 kBit/s
Качество : Высокий
Добавление ID3-тэга : Нет
Утилита сжатия : C:\Program Files\Exact Audio Copy\FLAC\FLAC.EXE
Дополнительные параметры : -6 -V -T "ARTIST=%a" -T "TITLE=%t" -T "ALBUM=%g" -T "DATE=%y" -T "TRACKNUMBER=%n" -T "GENRE=%m" -T "COMMENT=%e" %s -o %d
TOC извлечённого CD
Трек | Старт | Длительность | Начальный сектор | Конечный сектор
---------------------------------------------------------------------
1 | 0:00.00 | 2:45.02 | 0 | 12376
2 | 2:45.02 | 3:12.25 | 12377 | 26801
3 | 5:57.27 | 6:05.65 | 26802 | 54241
4 | 12:03.17 | 5:44.00 | 54242 | 80041
5 | 17:47.17 | 2:39.45 | 80042 | 92011
6 | 20:26.62 | 3:35.58 | 92012 | 108194
7 | 24:02.45 | 4:12.47 | 108195 | 127141
8 | 28:15.17 | 4:40.05 | 127142 | 148146
9 | 32:55.22 | 2:54.40 | 148147 | 161236
10 | 35:49.62 | 5:21.03 | 161237 | 185314
Характеристики диапазона извлечения и сообщения об ошибках
Выбранный диапазон
Имя файла C:\Users\Миша\Documents\Yusef Lateef - Live at Pep's Volume Two\Roger kellaway - Roger kellaway Trio.wav
Пиковый уровень 93.2 %
Качество диапазона 99.9 %
CRC копии 4491BC22
Копирование... OK
Ошибок не произошло
AccurateRip: сводка
Трек 1 нет в базе данных
Трек 2 нет в базе данных
Трек 3 нет в базе данных
Трек 4 нет в базе данных
Трек 5 нет в базе данных
Трек 6 нет в базе данных
Трек 7 нет в базе данных
Трек 8 нет в базе данных
Трек 9 нет в базе данных
Трек 10 нет в базе данных
Ни одного трека нет в базе AccurateRip
Конец отчёта
Any questions - support@pro-jazz.com. Есть вопросы - support@pro-jazz.com
10:56
274
Нет комментариев. Ваш будет первым!