Вы используете незарегистрированную версию компонента "Вкладки"!

Поиск

(Jazz, Modern Creative, Free Improv) Daniel Humair, Joachim Kuhn, Tony Malaby - Full Contact - 2008, FLAC (tracks+.cue) lossless

Треклист:
Daniel Humair, Joachim Kuhn, Tony Malaby - Full Contact
Жанр: Jazz, Modern Creative, Free Improv
Год издания диска: 2008
Издатель (лейбл): Bee Jazz
Номер по каталогу: BEE 020
Аудио кодек: FLAC (*.flac)
Тип рипа: tracks+.cue
Битрейт аудио: lossless
Продолжительность: 00:53:35
Источник (релизер): GatoMedio
Наличие сканов в содержимом раздачи: да
Треклист:
01 - Buried Head (Tony Malaby) 05:31
02 - Jim Dine (Daniel Humair, Joachim Kuhn & Tony Malaby) 08:54
03 - Full Contact (Daniel Humair) 07:46
04 - Oasis (Joachim Kuhn) 06:25
05 - Ghislene (Daniel Humair & Joachim Kuhn) 10:58
06 - Salinas (Joachim Kuhn) 05:33
07 - Effervescent Springbox (Daniel Humair, Joachim Kuhn & Tony Malaby) 05:10
08 - Sleeping Angels (Daniel Humair, Joachim Kuhn & Tony Malaby) 03:15
 
Лог создания рипа
Exact Audio Copy V0.99 prebeta 5 from 4. May 2009
EAC extraction logfile from 28. December 2010, 19:11
Daniel Humair, Joachim Kьhn, Tony Malaby / Full Contact
Used drive : HL-DT-STDVD-RAM GSA-H55N Adapter: 0 ID: 0
Read mode : Secure
Utilize accurate stream : Yes
Defeat audio cache : Yes
Make use of C2 pointers : No
Read offset correction : 102
Overread into Lead-In and Lead-Out : No
Fill up missing offset samples with silence : Yes
Delete leading and trailing silent blocks : No
Null samples used in CRC calculations : Yes
Used interface : Native Win32 interface for Win NT & 2000
Gap handling : Appended to previous track
Used output format : Internal WAV Routines
Sample format : 44.100 Hz; 16 Bit; Stereo
TOC of the extracted CD
Track | Start | Length | Start sector | End sector
---------------------------------------------------------
1 | 0:00.00 | 5:31.45 | 0 | 24869
2 | 5:31.45 | 8:54.30 | 24870 | 64949
3 | 14:26.00 | 7:46.11 | 64950 | 99910
4 | 22:12.11 | 6:25.20 | 99911 | 128805
5 | 28:37.31 | 10:58.15 | 128806 | 178170
6 | 39:35.46 | 5:33.67 | 178171 | 203212
7 | 45:09.38 | 5:10.50 | 203213 | 226512
8 | 50:20.13 | 3:15.17 | 226513 | 241154
Track 1
Filename D:\_Music myRips\Humair, Kьhn, Malaby - Full Contact\Daniel Humair, Joachim Kьhn, Tony Malaby - Full Contact (wav)\01 - 01 , Buried head.wav
Pre-gap length 0:00:02.00
Peak level 98.8 %
Track quality 100.0 %
Test CRC 12B0962F
Copy CRC 12B0962F
Cannot be verified as accurate (confidence 3) [4A4A711C], AccurateRip returned [8831218E]
Copy OK
Track 2
Filename D:\_Music myRips\Humair, Kьhn, Malaby - Full Contact\Daniel Humair, Joachim Kьhn, Tony Malaby - Full Contact (wav)\02 - 02 , Jim dine.wav
Peak level 99.1 %
Track quality 100.0 %
Test CRC 5CC124B9
Copy CRC 5CC124B9
Cannot be verified as accurate (confidence 4) [5516C13F], AccurateRip returned [CCC15F77]
Copy OK
Track 3
Filename D:\_Music myRips\Humair, Kьhn, Malaby - Full Contact\Daniel Humair, Joachim Kьhn, Tony Malaby - Full Contact (wav)\03 - 03 , Full contact.wav
Peak level 98.8 %
Track quality 100.0 %
Test CRC 4F04EDF6
Copy CRC 4F04EDF6
Cannot be verified as accurate (confidence 4) [7E324CD8], AccurateRip returned [DF11A176]
Copy OK
Track 4
Filename D:\_Music myRips\Humair, Kьhn, Malaby - Full Contact\Daniel Humair, Joachim Kьhn, Tony Malaby - Full Contact (wav)\04 - 04 , Oasis.wav
Peak level 97.6 %
Track quality 100.0 %
Test CRC 07FFE332
Copy CRC 07FFE332
Cannot be verified as accurate (confidence 4) [72A8251F], AccurateRip returned [4F713FDF]
Copy OK
Track 5
Filename D:\_Music myRips\Humair, Kьhn, Malaby - Full Contact\Daniel Humair, Joachim Kьhn, Tony Malaby - Full Contact (wav)\05 - 05 , Ghislиne.wav
Peak level 99.0 %
Track quality 100.0 %
Test CRC 8927D858
Copy CRC 8927D858
Cannot be verified as accurate (confidence 4) [11B558DA], AccurateRip returned [848D9002]
Copy OK
Track 6
Filename D:\_Music myRips\Humair, Kьhn, Malaby - Full Contact\Daniel Humair, Joachim Kьhn, Tony Malaby - Full Contact (wav)\06 - 06 , Salinas.wav
Peak level 97.8 %
Track quality 100.0 %
Test CRC A50791CB
Copy CRC A50791CB
Cannot be verified as accurate (confidence 4) [EC3AB8BD], AccurateRip returned [9B2A9A23]
Copy OK
Track 7
Filename D:\_Music myRips\Humair, Kьhn, Malaby - Full Contact\Daniel Humair, Joachim Kьhn, Tony Malaby - Full Contact (wav)\07 - 07 , Effervescent springbox.wav
Peak level 98.8 %
Track quality 100.0 %
Test CRC CA6A84A8
Copy CRC CA6A84A8
Cannot be verified as accurate (confidence 4) [D08D5C9B], AccurateRip returned [AA1B8BDB]
Copy OK
Track 8
Filename D:\_Music myRips\Humair, Kьhn, Malaby - Full Contact\Daniel Humair, Joachim Kьhn, Tony Malaby - Full Contact (wav)\08 - 08 , Sleeping angels.wav
Peak level 97.9 %
Track quality 100.0 %
Test CRC 34E90B82
Copy CRC 34E90B82
Cannot be verified as accurate (confidence 4) [18AA29ED], AccurateRip returned [5FB999C1]
Copy OK
No tracks could be verified as accurate
You may have a different pressing from the one(s) in the database
No errors occurred
End of status report
 
Содержание индексной карты (.CUE)
REM DISCID 630C8F08
REM COMMENT "ExactAudioCopy v0.99pb5"
PERFORMER "Daniel Humair, Joachim Kьhn, Tony Malaby"
TITLE "Full Contact"
FILE "01 - 01 , Buried head.wav" WAVE
TRACK 01 AUDIO
TITLE "01 / Buried head"
PERFORMER "Daniel Humair, Joachim Kьhn, Tony Malaby"
INDEX 01 00:00:00
FILE "02 - 02 , Jim dine.wav" WAVE
TRACK 02 AUDIO
TITLE "02 / Jim dine"
PERFORMER "Daniel Humair, Joachim Kьhn, Tony Malaby"
INDEX 01 00:00:00
FILE "03 - 03 , Full contact.wav" WAVE
TRACK 03 AUDIO
TITLE "03 / Full contact"
PERFORMER "Daniel Humair, Joachim Kьhn, Tony Malaby"
INDEX 01 00:00:00
FILE "04 - 04 , Oasis.wav" WAVE
TRACK 04 AUDIO
TITLE "04 / Oasis"
PERFORMER "Daniel Humair, Joachim Kьhn, Tony Malaby"
INDEX 01 00:00:00
FILE "05 - 05 , Ghislиne.wav" WAVE
TRACK 05 AUDIO
TITLE "05 / Ghislиne"
PERFORMER "Daniel Humair, Joachim Kьhn, Tony Malaby"
INDEX 01 00:00:00
FILE "06 - 06 , Salinas.wav" WAVE
TRACK 06 AUDIO
TITLE "06 / Salinas"
PERFORMER "Daniel Humair, Joachim Kьhn, Tony Malaby"
INDEX 01 00:00:00
FILE "07 - 07 , Effervescent springbox.wav" WAVE
TRACK 07 AUDIO
TITLE "07 / Effervescent springbox"
PERFORMER "Daniel Humair, Joachim Kьhn, Tony Malaby"
INDEX 01 00:00:00
FILE "08 - 08 , Sleeping angels.wav" WAVE
TRACK 08 AUDIO
TITLE "08 / Sleeping angels"
PERFORMER "Daniel Humair, Joachim Kьhn, Tony Malaby"
INDEX 01 00:00:00
 
Доп.инфо.
Swiss drummer Daniel Humair and German pianist Joachim Kühn released their first album together in 1985 ("Easy To Read"), and now, for Humair's 70th birthday, they join forces again, for the first time with Tony Malaby on sax and without a bass. Half of the tracks are newly composed, some others come from previous occasions. "Buried Head" figures on Tony Malaby's "Tamarindo", "Ghislène" is "Guylene" (why the different spelling?) from "Easy To Read", and "Salinas" by Kühn from "Triple Entente" (1998). All three musicians have a fantastic track record in the jazz scene of the last twenty to forty years, and have played in all kinds of settings and genres, from traditional bop and mainstream to more free jazz and fusion. And it's interesting to see that amongst the three of them, the overall mode is free, with often wild improvisations, yet strongly anchored in structure and often with a harmonic basis, even if that's not always so apparent. The same holds true with the rhythm : it is there, sure enough, but more often implicit than anything else. The absence of a bass pushes the three musicians to fill that void, especially the drums and the piano, by going into the lower tones, yet Humair clearly prefers adding to the music, accentuating, participating in creating the overall texture rather than filling in the rhythmic gaps. That gives the music a little more of a harsh and abstract sound than we would expect, but it is all the richer for it. Most tracks are complex and offer lots of variation, changes in tempo, in intensity, moving between slow sensitive lyricism and thundering abstract rawness. All three musicians are in absolute top form, throwing in a wealth of ideas and emotions, feeling perfectly comfortable in this world of musical contrasts and paradoxes, reinforcing each other or bouncing off ideas. Humair is precise, intense and creative, Kühn less romantic than I know him, more percussive than you would expect, yet always lyrical, and Malaby is the perfect fit, free, deeply emotional and also very lyrical, re-using successful phrases from Tamarindo (even on other tracks), even using some from Coltrane, with the superb tone and richness in feeling that he's been cultivating over the years. "Full Contact" is superb. (Source: freejazz-stef, July 2008)
Any questions -> support@pro-jazz.com. По всем вопросам пишите -> support@pro-jazz.com
07:12
231
Нет комментариев. Ваш будет первым!