Вы используете незарегистрированную версию компонента "Вкладки"!

Поиск

(Jazz, Free Jazz, Avant-Garde) Sonny Sharrock - Ask the Ages - 1991, FLAC (tracks+.cue) lossless

Треклист:
Sonny Sharrock - Ask the Ages
Жанр: Jazz, Free Jazz, Avant-Garde
Год издания диска: 1991
Издатель (лейбл): Axiom
Номер по каталогу: 422-848957-2
Аудио кодек: FLAC (*.flac)
Тип рипа: tracks+.cue
Битрейт аудио: lossless
Продолжительность: 00:44:36
Источник (релизер): GatoMedio
Наличие сканов в содержимом раздачи: да
Треклист:
01 - Promises Kept- 09:43
02 - Who Does She Hope to Be?- 04:41
03 - Little Rock- 07:12
04 - As We Used to Sing- 07:45
05 - Many Mansions- 09:31
06 - Once upon a Time- 06:26
 
Лог создания рипа
Exact Audio Copy V0.99 prebeta 5 from 4. May 2009
EAC extraction logfile from 31. December 2010, 18:42
Sonny Sharrock / Ask The Ages
Used drive : HL-DT-STDVD-RAM GSA-H55N Adapter: 0 ID: 0
Read mode : Secure
Utilize accurate stream : Yes
Defeat audio cache : Yes
Make use of C2 pointers : No
Read offset correction : 102
Overread into Lead-In and Lead-Out : No
Fill up missing offset samples with silence : Yes
Delete leading and trailing silent blocks : No
Null samples used in CRC calculations : Yes
Used interface : Native Win32 interface for Win NT & 2000
Gap handling : Appended to previous track
Used output format : Internal WAV Routines
Sample format : 44.100 Hz; 16 Bit; Stereo
TOC of the extracted CD
Track | Start | Length | Start sector | End sector
---------------------------------------------------------
1 | 0:00.00 | 9:44.53 | 0 | 43852
2 | 9:44.53 | 4:41.70 | 43853 | 64997
3 | 14:26.48 | 6:35.67 | 64998 | 94689
4 | 21:02.40 | 7:32.38 | 94690 | 128627
5 | 28:35.03 | 9:31.60 | 128628 | 171512
6 | 38:06.63 | 6:30.62 | 171513 | 200824
Track 1
Filename F:\_temp\[1991] Sonny Sharrock - Ask The Ages (wav)\01 - Promises Kept.wav
Pre-gap length 0:00:02.00
Peak level 97.7 %
Track quality 100.0 %
Test CRC E2C7DBFC
Copy CRC E2C7DBFC
Track not present in AccurateRip database
Copy OK
Track 2
Filename F:\_temp\[1991] Sonny Sharrock - Ask The Ages (wav)\02 - Who Does She Hope To Be .wav
Peak level 97.7 %
Track quality 99.9 %
Test CRC D1A23374
Copy CRC D1A23374
Track not present in AccurateRip database
Copy OK
Track 3
Filename F:\_temp\[1991] Sonny Sharrock - Ask The Ages (wav)\03 - Little Rock.wav
Peak level 97.7 %
Track quality 100.0 %
Test CRC 846780EB
Copy CRC 846780EB
Track not present in AccurateRip database
Copy OK
Track 4
Filename F:\_temp\[1991] Sonny Sharrock - Ask The Ages (wav)\04 - As We Used To Sing.wav
Peak level 91.7 %
Track quality 100.0 %
Test CRC E58A05FC
Copy CRC E58A05FC
Track not present in AccurateRip database
Copy OK
Track 5
Filename F:\_temp\[1991] Sonny Sharrock - Ask The Ages (wav)\05 - Many Mansions.wav
Peak level 94.7 %
Track quality 99.9 %
Test CRC 6CCC0D1C
Copy CRC 6CCC0D1C
Track not present in AccurateRip database
Copy OK
Track 6
Filename F:\_temp\[1991] Sonny Sharrock - Ask The Ages (wav)\06 - Once Upon A Time.wav
Peak level 93.4 %
Track quality 100.0 %
Test CRC E9777405
Copy CRC E9777405
Track not present in AccurateRip database
Copy OK
None of the tracks are present in the AccurateRip database
No errors occurred
End of status report
 
Содержание индексной карты (.CUE)
REM GENRE Jazz
REM DATE 1991
REM DISCID 5C0A7506
REM COMMENT "ExactAudioCopy v0.99pb5"
PERFORMER "Sonny Sharrock"
TITLE "Ask The Ages"
FILE "01 - Promises Kept.wav" WAVE
TRACK 01 AUDIO
TITLE "Promises Kept"
PERFORMER "Sonny Sharrock"
INDEX 01 00:00:00
FILE "02 - Who Does She Hope To Be .wav" WAVE
TRACK 02 AUDIO
TITLE "Who Does She Hope To Be?"
PERFORMER "Sonny Sharrock"
INDEX 01 00:00:00
FILE "03 - Little Rock.wav" WAVE
TRACK 03 AUDIO
TITLE "Little Rock"
PERFORMER "Sonny Sharrock"
INDEX 01 00:00:00
FILE "04 - As We Used To Sing.wav" WAVE
TRACK 04 AUDIO
TITLE "As We Used To Sing"
PERFORMER "Sonny Sharrock"
INDEX 01 00:00:00
FILE "05 - Many Mansions.wav" WAVE
TRACK 05 AUDIO
TITLE "Many Mansions"
PERFORMER "Sonny Sharrock"
INDEX 01 00:00:00
FILE "06 - Once Upon A Time.wav" WAVE
TRACK 06 AUDIO
TITLE "Once Upon A Time"
PERFORMER "Sonny Sharrock"
INDEX 01 00:00:00
 
Доп.инфо.
Ask the Ages is Sonny Sharrock's masterpiece, and sadly it was also the last album he would record before his premature death in 1994. It's the most challenging jazz work he recorded as a leader, and it's the clearest expression of his roots as a jazz player, drawing heavily on Coltrane's modal post-bop and concepts of freedom. To that end, Sharrock reunites with Coltrane's old cohort, Pharoah Sanders, who featured Sharrock on his wild Tauhid and Izipho Zam LPs; what's more, Coltrane Quartet drummer Elvin Jones is on hand, as is young bassist Charnett Moffett. It's far and away the best, most adventurous, and most jazz-oriented backing group Sharrock recorded with during his comeback, and the results are breathtaking. The compositions are all Sharrock originals, and all six have utterly memorable themes that often recall the sweeping lyricism of Sanders' most spiritual '60s works. For his part, Sanders responds with some of his most ferocious playing in years, and Sharrock sounds vitally energized by the tenor's screeching passion. There isn't a wasted moment on the album, but particular highlights include the fiery, majestic opener, "Promises Kept," the searching ballad "Who Does She Hope to Be?," and the awe-inspiring blast-fest "Many Mansions," where Sharrock and Sanders both reach a blistering pinnacle. Listeners coming to Sharrock from rock & roll or his Space Ghost Coast to Coast soundtrack might find that Ask the Ages isn't the nonstop skronk-fest they expected; it's his overall musicality that's on display, but there's still plenty that will scare the bejeezus out of timid jazzbos. It's a tragedy that Sharrock didn't get much of a chance to expand on this achievement, but thankfully it exists in the first place. ~Steve Huey, All Music
По всем вопросам пишите личное сообщение пользователю M0p94ok.
07:12
173
Нет комментариев. Ваш будет первым!