Поиск

(Jazz) Michel Portal - La Petite Chartreuse - 2005, FLAC (image + .cue), lossless

(Jazz) Michel Portal - La Petite Chartreuse - 2005, FLAC (image + .cue), lossless
Треклист:
Michel Portal - La Petite Chartreuse
Страна: France
Жанр: Jazz
Год выпуска: 2005
Формат: FLAC (image + .cue)
Битрейт аудио: lossless
Продолжительность: 43:55
Трэклист:
1. Haut
2. Pays Des Oiseaux
3. Grand Blanc
4. John Et Michel
5. Assez D'amour
6. Croisements
7. Souffle
8. Erwan
9. Pays Des Oiseaux Pt. 2
10. Chartreux
11. Comptine
12. Errance
13. Cimes
14. L'envol
15. Petite Chartreuse
Доп. информация:
Mederic Collignon: trumpet
Francois Corneloup: saxophone
Michel Portal: bass clarinet, clarinet
Oliver Portal: keyboards
 
EAC Report
Exact Audio Copy V0.99 prebeta 3 from 28. July 2007
EAC extraction logfile from 30. January 2008, 21:55
Michel Portal / La Petie Chartreuse
Used drive : MATSHITADVD-RAM UJ-840S Adapter: 1 ID: 0
Read mode : Secure
Utilize accurate stream : Yes
Defeat audio cache : No
Make use of C2 pointers : Yes
Read offset correction : 102
Overread into Lead-In and Lead-Out : No
Fill up missing offset samples with silence : Yes
Delete leading and trailing silent blocks : No
Null samples used in CRC calculations : No
Used interface : Native Win32 interface for Win NT & 2000
Used output format : User Defined Encoder
Selected bitrate : 1024 kBit/s
Quality : High
Add ID3 tag : No
Command line compressor : C:\Program Files\Exact Audio Copy\FLAC\FLAC.EXE
Additional command line options : -6 -V -T "ARTIST=%a" -T "TITLE=%t" -T "ALBUM=%g" -T "DATE=%y" -T "TRACKNUMBER=%n" -T "GENRE=%m" -T "COMMENT=%e" %s -o %d
TOC of the extracted CD
Track | Start | Length | Start sector | End sector
---------------------------------------------------------
1 | 0:00.00 | 1:36.10 | 0 | 7209
2 | 1:36.10 | 1:48.34 | 7210 | 15343
3 | 3:24.44 | 2:20.71 | 15344 | 25914
4 | 5:45.40 | 1:56.62 | 25915 | 34676
5 | 7:42.27 | 3:46.11 | 34677 | 51637
6 | 11:28.38 | 1:58.26 | 51638 | 60513
7 | 13:26.64 | 1:31.61 | 60514 | 67399
8 | 14:58.50 | 2:23.70 | 67400 | 78194
9 | 17:22.45 | 1:31.07 | 78195 | 85026
10 | 18:53.52 | 1:20.41 | 85027 | 91067
11 | 20:14.18 | 2:09.42 | 91068 | 100784
12 | 22:23.60 | 2:24.31 | 100785 | 111615
13 | 24:48.16 | 2:15.20 | 111616 | 121760
14 | 27:03.36 | 2:50.02 | 121761 | 134512
15 | 29:53.38 | 1:34.69 | 134513 | 141631
Range status and errors
Selected range
Filename C:\Documents and Settings\Igor\My Documents\Lina\Michel Portal - La Petie Chartreuse.wav
Peak level 89.6 %
Range quality 100.0 %
Copy CRC 868E90C7
Copy OK
No errors occurred
AccurateRip summary
Track 1 not present in database
Track 2 not present in database
Track 3 not present in database
Track 4 not present in database
Track 5 not present in database
Track 6 not present in database
Track 7 not present in database
Track 8 not present in database
Track 9 not present in database
Track 10 not present in database
Track 11 not present in database
Track 12 not present in database
Track 13 not present in database
Track 14 not present in database
Track 15 not present in database
None of the tracks are present in the AccurateRip database
End of status report
Приватный:
Нет (DHT включён)
Размер:
131.39 Мб (137,776,945 байт) » файлов: 5
Участники:
0 раздают, 0 качают (0 участников всего)
Внешние участники:
3 раздают, 1 качают (4 участников всего) [ Обновить ]
Есть вопросы - пишите личное сообщение пользователю M0p94ok.
23:15
68
Нет комментариев. Ваш будет первым!