Поиск

(Jazz) Michel Portal & Martial Solal - Fast Mood - 1999, FLAC (image + .cue), lossless

(Jazz) Michel Portal & Martial Solal - Fast Mood - 1999, FLAC (image + .cue), lossless
Треклист:
Michel Portal & Martial Solal - Fast Mood
Страна: France
Жанр: Jazz
Год выпуска: 1999
Формат: FLAC (image + .cue)
Битрейт аудио: lossless
Продолжительность: 43:55
Трэклист:
Fast Mood
Duo a 3 voix
Solitudes
BMG #5
Quand les Chlamydes sont fatiguees
Long Space
Domimonk
Zag-Zig
Rien d'un Blues
Petites Phrases
Allegro Spiritual
Walkin
Доп. информация:
Martial Solal: piano
Michel Portal: bass clarinet, clarinet, alto, soprano saxophones
 
EAC Report
Exact Audio Copy V0.99 prebeta 3 from 28. July 2007
EAC extraction logfile from 30. January 2008, 21:20
Michel Portal & Martial Solal / Fast Mood
Used drive : MATSHITADVD-RAM UJ-840S Adapter: 1 ID: 0
Read mode : Secure
Utilize accurate stream : Yes
Defeat audio cache : No
Make use of C2 pointers : Yes
Read offset correction : 102
Overread into Lead-In and Lead-Out : No
Fill up missing offset samples with silence : Yes
Delete leading and trailing silent blocks : No
Null samples used in CRC calculations : No
Used interface : Native Win32 interface for Win NT & 2000
Used output format : User Defined Encoder
Selected bitrate : 1024 kBit/s
Quality : High
Add ID3 tag : No
Command line compressor : C:\Program Files\Exact Audio Copy\FLAC\FLAC.EXE
Additional command line options : -6 -V -T "ARTIST=%a" -T "TITLE=%t" -T "ALBUM=%g" -T "DATE=%y" -T "TRACKNUMBER=%n"
-T "GENRE=%m" -T "COMMENT=%e" %s -o %d
TOC of the extracted CD
Track | Start | Length | Start sector | End sector
---------------------------------------------------------
1 | 0:00.32 | 3:21.28 | 32 | 15134
2 | 3:21.60 | 3:33.10 | 15135 | 31119
3 | 6:54.70 | 4:30.35 | 31120 | 51404
4 | 11:25.30 | 2:24.52 | 51405 | 62256
5 | 13:50.07 | 5:36.55 | 62257 | 87511
6 | 19:26.62 | 4:27.23 | 87512 | 107559
7 | 23:54.10 | 3:48.07 | 107560 | 124666
8 | 27:42.17 | 2:48.58 | 124667 | 137324
9 | 30:31.00 | 3:28.17 | 137325 | 152941
10 | 33:59.17 | 4:00.08 | 152942 | 170949
11 | 37:59.25 | 3:35.57 | 170950 | 187131
12 | 41:35.07 | 2:19.50 | 187132 | 197606
Range status and errors
Selected range
Filename C:\Documents and Settings\Igor\My Documents\Lina\Michel Portal & Martial Solal - Fast Mood.wav
Peak level 97.6 %
Range quality 100.0 %
Copy CRC 987BA0C5
Copy OK
No errors occurred
AccurateRip summary
Track 1 not present in database
Track 2 not present in database
Track 3 not present in database
Track 4 not present in database
Track 5 not present in database
Track 6 not present in database
Track 7 not present in database
Track 8 not present in database
Track 9 not present in database
Track 10 not present in database
Track 11 not present in database
Track 12 not present in database
None of the tracks are present in the AccurateRip database
End of status repor
Приватный:
Нет (DHT включён)
Размер:
186.65 Мб (195,718,560 байт) » файлов: 5
Участники:
0 раздают, 0 качают (0 участников всего)
Внешние участники:
2 раздают, 1 качают (3 участников всего) [ Обновить ]
Есть вопросы - пишите личное сообщение пользователю M0p94ok.
23:15
53
Нет комментариев. Ваш будет первым!