Вы используете незарегистрированную версию компонента "Вкладки"!

Поиск

(Jazz) Michel Legrand & Company - Le Jazz Grand - 1978, FLAC (tracks+.cue), lossless

(Jazz) Michel Legrand & Company - Le Jazz Grand - 1978, FLAC (tracks+.cue), lossless
Треклист:
Michel Legrand & Company - Le Jazz Grand
Жанр: Jazz
Год выпуска диска: 1978
Производитель диска: France (USA)
Аудио кодек: FLAC
Тип рипа: tracks+.cue
Битрейт аудио: lossless
Продолжительность: 45 minutes 53 seconds
Трэклист:
1. Michel Legrand & Company - Southern Routes (23:05)
2. Michel Legrand & Company - La Pasionaria (3:38)
3. Michel Legrand & Company - Malagan Stew (5:13)
4. Michel Legrand & Company - Iberia Nova (5:07)
5. Michel Legrand & Company - Basquette (8:50)
Доп. информация:
 
Отчёт EAC
Exact Audio Copy V0.99 prebeta 4 from 23. January 2008
Отчёт EAC об извлечении, выполненном 20. октября 2008, 1:19
Michel Legrand & Company / Le Grand Jazz
Дисковод: Optiarc DVD RW AD-7191A Adapter: 1 ID: 0
Режим чтения : Достоверность
Использование точного потока : Да
Отключение кэша аудио : Да
Использование указателей C2 : Нет
Коррекция смещения при чтении : 6
Способность читать области Lead-in и Lead-out : Нет
Заполнение пропущенных сэмплов тишиной : Да
Удаление блоков с тишиной в начале и конце : Нет
При вычислениях CRC использовались нулевые сэмплы : Да
Интерфейс : Установленный внешний ASPI-интерфейс
Обработка зазоров : Не обнаружено, добавлено к предыдущему треку
Выходной формат : Пользовательский кодировщик
Выбранный битрейт : 768 kBit/s
Качество : Высокий
Добавление ID3-тэга : Нет
Утилита сжатия : C:\Program Files\Exact Audio Copy\FLAC\FLAC.EXE
Дополнительные параметры : -6 -V -T "ARTIST=%a" -T "TITLE=%t" -T "ALBUM=%g" -T "DATE=%y" -T "TRACKNUMBER=%n" -T "GENRE=%m" -T "COMMENT=%e" %s -o %d
Смещение при сжатии : 6
TOC извлечённого CD
Трек | Старт | Длительность | Начальный сектор | Конечный сектор
---------------------------------------------------------------------
1 | 0:00.33 | 23:05.02 | 33 | 103909
2 | 23:05.35 | 3:37.73 | 103910 | 120257
3 | 26:43.33 | 5:13.30 | 120258 | 143762
4 | 31:56.63 | 5:07.37 | 143763 | 166824
5 | 37:04.25 | 8:50.08 | 166825 | 206582
Трек 1
Имя файла C:\Documents and Settings\SlaM\Рабочий стол\123\Michel Legrand & Company - Le Grand Jazz - 01 - Southern Routes.wav
Пиковый уровень 100.0 %
Качество трека 99.9 %
CRC копии 68C674FD
Копирование... OK
Трек 2
Имя файла C:\Documents and Settings\SlaM\Рабочий стол\123\Michel Legrand & Company - Le Grand Jazz - 02 - La Pasionaria.wav
Пиковый уровень 57.6 %
Качество трека 100.0 %
CRC копии D326FD22
Копирование... OK
Трек 3
Имя файла C:\Documents and Settings\SlaM\Рабочий стол\123\Michel Legrand & Company - Le Grand Jazz - 03 - Malagan Stew.wav
Пиковый уровень 95.2 %
Качество трека 100.0 %
CRC копии 10366E69
Копирование... OK
Трек 4
Имя файла C:\Documents and Settings\SlaM\Рабочий стол\123\Michel Legrand & Company - Le Grand Jazz - 04 - Iberia Nova.wav
Пиковый уровень 71.7 %
Качество трека 99.9 %
CRC копии 79D043B8
Копирование... OK
Трек 5
Имя файла C:\Documents and Settings\SlaM\Рабочий стол\123\Michel Legrand & Company - Le Grand Jazz - 05 - Basquette.wav
Пиковый уровень 78.3 %
Качество трека 100.0 %
CRC копии F8A64D43
Копирование... OK
Ошибок не произошло
Конец отчёта
 
Состав:
THE BIG BAND
Leader
Michel Legrand
The Front Line
Gerry Mulligan
Phil Woods
Jon Faddis
The Rhythm Section
Grady Tate
Ron Carter
"Crusher" Bennett
Portinho
Don Elliot
Guitar
Harry Leahey
Keyboards
Bernie Leighton
Tom Pierson
Harp
Gloria Agostini
Brass
Joe Shepley
Burt Collins
John Gatchell
John Clark
Albert Richmond
Brooks Tillotson
Tony Price
THE SMALL GROUP
Michel Legrand - Piano
Gerry Mulligan - Baritone Saxophone
Phil Woods - Alto Saxophone
Jon Faddis - Trumpet
Ron Carter - Bass
Jimmy Madison - Drums
Portinho - Percussion
Any questions - support@pro-jazz.com. Есть вопросы - support@pro-jazz.com
04:19
271
Нет комментариев. Ваш будет первым!