Вы используете незарегистрированную версию компонента "Вкладки"!

Поиск

(Jazz) Kenny Burrell & Grover Washington Jr. - Togethering - 1985, FLAC (image+.cue), lossless

(Jazz) Kenny Burrell & Grover Washington Jr. - Togethering - 1985, FLAC (image+.cue), lossless
Треклист:
Kenny Burrell & Grover Washington Jr. - Togethering
Жанр: Jazz
Год выпуска диска: 1985
Аудио кодек: FLAC
Тип рипа: image+.cue
Битрейт аудио: lossless
Продолжительность: 00:52:29
Трэклист:
01-Soulero
02-Sails of Your Soul
03-Day Dream
04-A Beautiful Friendship
05-Togethering
06-Romance Dance
07-Asphalt Canyon Blues
08-What am I Here For
09-Summertime
10-I'm Glad There is You
Доп. информация:
FEATURING:
Ron Carter
Jack Dejohnette
Ralph Macdonald
 
Отчет EAC
Exact Audio Copy V0.99 prebeta 4 from 23. January 2008
EAC extraction logfile from 20. October 2008, 9:41
Kenny Burrell & Grover Washington Jr. / Togethering
Used drive : ASUS DRW-1608P Adapter: 1 ID: 1
Read mode : Secure
Utilize accurate stream : Yes
Defeat audio cache : Yes
Make use of C2 pointers : No
Read offset correction : 48
Overread into Lead-In and Lead-Out : No
Fill up missing offset samples with silence : Yes
Delete leading and trailing silent blocks : No
Null samples used in CRC calculations : Yes
Used interface : Installed external ASPI interface
Used output format : Internal WAV Routines
Sample format : 44.100 Hz; 16 Bit; Stereo
Use compression offset : 48
TOC of the extracted CD
Track | Start | Length | Start sector | End sector
---------------------------------------------------------
1 | 0:00.00 | 4:36.30 | 0 | 20729
2 | 4:36.30 | 5:23.05 | 20730 | 44959
3 | 9:59.35 | 5:01.07 | 44960 | 67541
4 | 15:00.42 | 5:04.43 | 67542 | 90384
5 | 20:05.10 | 4:36.15 | 90385 | 111099
6 | 24:41.25 | 3:28.45 | 111100 | 126744
7 | 28:09.70 | 6:19.62 | 126745 | 155231
8 | 34:29.57 | 4:46.58 | 155232 | 176739
9 | 39:16.40 | 7:19.12 | 176740 | 209676
10 | 46:35.52 | 5:54.10 | 209677 | 236236
Range status and errors
Selected range
Filename K:\Torrents\Kenny Burrell & Grover Washington Jr\Kenny Burrell & Grover Washington Jr. - Togethering.wav
Peak level 98.8 %
Range quality 100.0 %
Copy CRC A7301FDA
Copy OK
No errors occurred
End of status report
Any questions -> support@pro-jazz.com. По всем вопросам пишите -> support@pro-jazz.com
04:19
182
Нет комментариев. Ваш будет первым!