Поиск

(Jazz) Markus Stockhausen - Sol Mestizo - 1996, FLAC (image + .cue), lossless

Треклист:
Markus Stockhausen - Sol Mestizo
Страна: USA
Жанр: Jazz
Год выпуска: 1996
Формат: FLAC (image + .cue)
Битрейт аудио: lossless
Продолжительность: 61:50
Трэклист:
1 Creation 03:58
2 Iluminacion 02:30
3 Lonconao 04:11
4 Reflexion 05:29
5 Canto Indio 01:32
6 Zampona 06:05
7 Divinidad 02:32
8 Adentro 04:01
9 In Your Mind 03:36
10 Queca 04:55
11 Desolacion 01:26
12 Asfalto 05:13
13 La Conquista 06:26
14 Yemaye 04:30
15 Reconciliacion 02:21
16 Emanacion 02:54
17 Takirari 05:22
 
отчёт ЕАС
Exact Audio Copy V0.99 prebeta 3 from 28. July 2007
EAC extraction logfile from 10. June 2008, 9:13
Markus Stockhausen / Sol Mestizo
Used drive : Optiarc DVD RW AD-7200A Adapter: 1 ID: 0
Read mode : Secure
Utilize accurate stream : Yes
Defeat audio cache : Yes
Make use of C2 pointers : No
Read offset correction : 48
Overread into Lead-In and Lead-Out : No
Fill up missing offset samples with silence : Yes
Delete leading and trailing silent blocks : No
Null samples used in CRC calculations : No
Used interface : Native Win32 interface for Win NT & 2000
Used output format : Internal WAV Routines
Sample format : 44.100 Hz; 16 Bit; Stereo
TOC of the extracted CD
Track | Start | Length | Start sector | End sector
---------------------------------------------------------
1 | 0:00.00 | 3:56.67 | 0 | 17766
2 | 3:56.67 | 2:30.10 | 17767 | 29026
3 | 6:27.02 | 4:10.48 | 29027 | 47824
4 | 10:37.50 | 5:29.20 | 47825 | 72519
5 | 16:06.70 | 1:32.35 | 72520 | 79454
6 | 17:39.30 | 6:04.37 | 79455 | 106791
7 | 23:43.67 | 2:34.08 | 106792 | 118349
8 | 26:18.00 | 4:02.00 | 118350 | 136499
9 | 30:20.00 | 3:35.37 | 136500 | 152661
10 | 33:55.37 | 4:57.63 | 152662 | 174999
11 | 38:53.25 | 1:25.27 | 175000 | 181401
12 | 40:18.52 | 5:12.43 | 181402 | 204844
13 | 45:31.20 | 6:27.07 | 204845 | 233876
14 | 51:58.27 | 4:32.18 | 233877 | 254294
15 | 56:30.45 | 2:21.00 | 254295 | 264869
16 | 58:51.45 | 2:55.05 | 264870 | 277999
17 | 61:46.50 | 5:21.25 | 278000 | 302099
Range status and errors
Selected range
Filename C:\Markus Stockhausen - Sol Mestizo\Markus Stockhausen - Sol Mestizo.wav
Peak level 99.7 %
Range quality 100.0 %
Copy CRC BB9DF586
Copy OK
No errors occurred
End of status report
 
Персоналии
Thomas Alkier Drums
Enrique Diaz Bass, Vocals
Chano Domínguez Piano
Juanita Lascarro Vocals
Felipe Mandingo Percussion, Vocals
Pia Miranda Vocals
Alexandra Naumann Vocals
Jochen Schmidt Bass (Electric)
Markus Stockhausen Trumpet, Flugelhorn, Liner Notes
Simon Stockhausen Keyboards, Sax (Soprano)
Sigfried Loch Producer
Walter Quintus Producer, Engineer
Petra Horn Art Direction
Cordula Croth Photography
 
Справка
The son of the famous modern classical composer, Karlheinz Stockhausen, Markus Stockhausen has been a fixture on ECM recordings for several years. He started classical trumpet lessons in 1969 and later studied jazz with Manfred Schoof. By the time he was 18, Stockhausen started performing his father's pieces and was working with the jazz group Key. An atmospheric player who doubles on flugelhorn, Stockhausen has played regularly in Europe, he studied at the Berlin Philharmonic in 1983 and he had his own group, Kairos, in the 1980's. Markus Stockhausen has led dates for Calig (1977), Fran (1980), Fonit/Cetra (1986) and ECM (starting in 1988).
Ешё Markus Stockhausen
Комплект сканов(300 dpi) в наличии.
02:35
323
Нет комментариев. Ваш будет первым!