Поиск

(avantgarde, piano jazz) John Zorn - Jamie Saft Trio plays Masada Book 2 - Book Of Angels - vol.1 - Astaroth - 2005, FLAC (image + .cue), lossless

(avantgarde, piano jazz) John Zorn - Jamie Saft Trio plays Masada Book 2 - Book Of Angels - vol.1 - Astaroth - 2005, FLAC (image + .cue), lossless
Треклист:
John Zorn - Jamie Saft Trio plays Masada Book 2 - Book Of Angels - vol.1 - Astaroth
Страна: USA
Жанр: avantgarde, piano jazz
Год выпуска: 2005
Формат: FLAC (image + .cue)
Битрейт аудио: lossless
Продолжительность: 55.26
Трэклист:
1. Shalmiel
2. Ygal
3. Astaroth
4. Ezeqeel
5. Ariel
6. Sturiel
7. Baal-Peor
8. Pursan
9. Lela’hel
10. Beleth
Доп. информация: Greg Cohen: Bass
Ben Perowsky: Drums
Jamie Saft: Piano
 
eac log
Exact Audio Copy V0.99 prebeta 4 from 23. January 2008
Отчёт EAC об извлечении, выполненном 9. июня 2008, 13:27
Jamie Saft Trio / Astaroth
Дисковод: Optiarc DVD RW AD-7170A Adapter: 0 ID: 1
Режим чтения : Достоверность
Использование точного потока : Да
Отключение кэша аудио : Да
Использование указателей C2 : Нет
Коррекция смещения при чтении : 48
Способность читать области Lead-in и Lead-out : Нет
Заполнение пропущенных сэмплов тишиной : Да
Удаление блоков с тишиной в начале и конце : Нет
При вычислениях CRC использовались нулевые сэмплы : Нет
Интерфейс : Встроенный Win32-интерфейс для Win NT/2000
Выходной формат : Пользовательский кодировщик
Выбранный битрейт : 768 kBit/s
Качество : Высокий
Добавление ID3-тэга : Нет
Утилита сжатия : C:\Program Files\Exact Audio Copy\FLAC\FLAC.EXE
Дополнительные параметры : -6 -V -T "ARTIST=%a" -T "TITLE=%t" -T "ALBUM=%g" -T "DATE=%y" -T "TRACKNUMBER=%n" -T "GENRE=%m" -T "COMMENT=%e" %s -o %d
TOC извлечённого CD
Трек | Старт | Длительность | Начальный сектор | Конечный сектор
---------------------------------------------------------------------
1 | 0:00.00 | 5:25.71 | 0 | 24445
2 | 5:25.71 | 3:10.48 | 24446 | 38743
3 | 8:36.44 | 6:11.23 | 38744 | 66591
4 | 14:47.67 | 4:22.38 | 66592 | 86279
5 | 19:10.30 | 6:29.63 | 86280 | 115517
6 | 25:40.18 | 5:06.73 | 115518 | 138540
7 | 30:47.16 | 7:12.12 | 138541 | 170952
8 | 37:59.28 | 2:23.24 | 170953 | 181701
9 | 40:22.52 | 9:04.08 | 181702 | 222509
10 | 49:26.60 | 5:59.40 | 222510 | 249474
Характеристики диапазона извлечения и сообщения об ошибках
Выбранный диапазон
Имя файла C:\Music\Jamie Saft - Astaroth.wav
Пиковый уровень 98.8 %
Качество диапазона 99.9 %
CRC копии 738A7794
Копирование... OK
Ошибок не произошло
AccurateRip: сводка
Трек 1 нет в базе данных
Трек 2 нет в базе данных
Трек 3 нет в базе данных
Трек 4 нет в базе данных
Трек 5 нет в базе данных
Трек 6 нет в базе данных
Трек 7 нет в базе данных
Трек 8 нет в базе данных
Трек 9 нет в базе данных
Трек 10 нет в базе данных
Ни одного трека нет в базе AccurateRip
Конец отчёта
02:34
294
Нет комментариев. Ваш будет первым!