Поиск

(Jazz, Latin, Rock) Tropicalia - A Brazilian Revolution In Sound - 2005, FLAC (image+.cue), lossless

Треклист:
Tropicalia - A Brazilian Revolution In Sound
Жанр: Jazz, Latin, Rock
Год выпуска диска: 2005
Производитель диска: UK
Аудио кодек: FLAC
Тип рипа: image+.cue
Битрейт аудио: lossless
Продолжительность: 70:42
Трэклист:
1. Gilberto Gil - Bat Macumba (2:36)
2. Os Mutantes - A Minha Menina (4:42)
3. Gal Costa - Tuareg (3:25)
4. Gilberto Gil E Os Mutantes - Domingo No Parque (3:43)
5. Caetano Veloso - Alfômega (5:51)
6. Gal Costa - Sebastiana (2:41)
7. Gilberto Gil - Procissão (2:54)
8. Caetano Veloso - Irene (3:47)
9. Os Mutantes - Ave Genghis Khan (3:45)
10. Jorge Ben - Take It Easy, My Brother Charles (2:36)
11. Tom Zé - Jimmy, Renda-se (3:38)
12. Os Mutantes - Ando Meio Desligado (3:04)
13. Caetano Veloso - Tropicália (3:40)
14. Tom Zé - Quero Sambal Meu Bem (3:52)
15. Gal Costa - Vou Recomeçar (3:25)
16. Os Mutantes - Panis Et Circenses (3:36)
17. Tom Zé - Gloria (3:19)
18. Os Mutantes - Quem Tem Medo De Brincar De Amor (3:32)
19. Caetano Veloso - Lost In The Paradise (3:26)
20. Os Mutantes - Bat Macumba (3:10)
Доп. информация: Soul Jazz Records
Tropicalia — краткосрочное, но до невозможности яркое бразильское движение конца шестидесятых годов. Tropicalia родилась в тот момент, когда молодые Caetano Veloso, Gil Gilberto, Gal Costa, Tom Ze и еще несколько музыкантов осознали, что не в силах сделать свой выбор между базовой босса-новой и привозным англо-американским рок-н-роллом, и в результате заиграли и то и другое одновременно. У них получилась раздольная пляжная поп-психоделия, очень здоровая и безболезненная, открытая как морскому воздуху, так и политическим веяниям. Сам же сборник получился ровным и по-хрестоматийному толковым, никаких невероятных раритетов на нем нет (так, все песни Os Mutantes уже появлялись на компиляции, которую David Byrne составил в конце девяностых). Три четверти представленных треков оставят по себе добрую и осмысленную память (что ни вещь, то какой-то питьевой фонтанчик), а вот такие песни, как «Take It Easy, My Brother Charles» Жорже Бена, «Sebastiana» и «Tuareg» Гал Косты, «Tropicalia» Каэтано Велозо, могут, в общем-то, и жизнь переменить к лучшему.
 
отчет EAC
Exact Audio Copy V0.99 prebeta 4 from 23. January 2008
Отчёт EAC об извлечении, выполненном 6. марта 2009, 0:31
Various / Tropicбlia - A Brazilian Revolution In Sound
Дисковод: TEAC DV-W28SLCTF Adapter: 4 ID: 1
Режим чтения : Достоверность
Использование точного потока : Да
Отключение кэша аудио : Да
Использование указателей C2 : Нет
Коррекция смещения при чтении : 48
Способность читать области Lead-in и Lead-out : Нет
Заполнение пропущенных сэмплов тишиной : Да
Удаление блоков с тишиной в начале и конце : Нет
При вычислениях CRC использовались нулевые сэмплы : Да
Интерфейс : Установленный внешний ASPI-интерфейс
Выходной формат : Пользовательский кодировщик
Выбранный битрейт : 1024 kBit/s
Качество : Высокий
Добавление ID3-тэга : Нет
Утилита сжатия : C:\Program Files\FLAC\flac.exe
Дополнительные параметры : -V -8 -T "artist=%a" -T "title=%t" -T "album=%g" -T "date=%y" -T "tracknumber=%n" -T "genre=%m" %s
TOC извлечённого CD
Трек | Старт | Длительность | Начальный сектор | Конечный сектор
---------------------------------------------------------------------
1 | 0:00.00 | 2:36.72 | 0 | 11771
2 | 2:36.72 | 4:42.41 | 11772 | 32962
3 | 7:19.38 | 3:25.58 | 32963 | 48395
4 | 10:45.21 | 3:43.11 | 48396 | 65131
5 | 14:28.32 | 5:51.68 | 65132 | 91524
6 | 20:20.25 | 2:41.33 | 91525 | 103632
7 | 23:01.58 | 2:54.35 | 103633 | 116717
8 | 25:56.18 | 3:47.10 | 116718 | 133752
9 | 29:43.28 | 3:45.35 | 133753 | 150662
10 | 33:28.63 | 2:36.18 | 150663 | 162380
11 | 36:05.06 | 3:38.44 | 162381 | 178774
12 | 39:43.50 | 3:04.50 | 178775 | 192624
13 | 42:48.25 | 3:40.60 | 192625 | 209184
14 | 46:29.10 | 3:52.25 | 209185 | 226609
15 | 50:21.35 | 3:25.02 | 226610 | 241986
16 | 53:46.37 | 3:36.73 | 241987 | 258259
17 | 57:23.35 | 3:19.34 | 258260 | 273218
18 | 60:42.69 | 3:32.04 | 273219 | 289122
19 | 64:14.73 | 3:26.74 | 289123 | 304646
20 | 67:41.72 | 3:10.64 | 304647 | 318960
Характеристики диапазона извлечения и сообщения об ошибках
Выбранный диапазон
Имя файла \\192.168.0.1\раздачи\tropicala\Various - Tropicбlia - A Brazilian Revolution In Sound.wav
Пиковый уровень 79.3 %
Качество диапазона 100.0 %
CRC копии 5217ADAA
Копирование... OK
Ошибок не произошло
AccurateRip: сводка
Трек 1 нет в базе данных
Трек 2 нет в базе данных
Трек 3 нет в базе данных
Трек 4 нет в базе данных
Трек 5 нет в базе данных
Трек 6 нет в базе данных
Трек 7 нет в базе данных
Трек 8 нет в базе данных
Трек 9 нет в базе данных
Трек 10 нет в базе данных
Трек 11 нет в базе данных
Трек 12 нет в базе данных
Трек 13 нет в базе данных
Трек 14 нет в базе данных
Трек 15 нет в базе данных
Трек 16 нет в базе данных
Трек 17 нет в базе данных
Трек 18 нет в базе данных
Трек 19 нет в базе данных
Трек 20 нет в базе данных
Ни одного трека нет в базе AccurateRip
Конец отчёта
Download available for power users only.
05:13
257
Нет комментариев. Ваш будет первым!