Поиск

(Art-folk, Avant-Jazz) Iva Bittova / Čikori - 2001, FLAC (image+.cue), lossless

(Art-folk, Avant-Jazz) Iva Bittova / Čikori - 2001, FLAC (image+.cue), lossless
Треклист:
Iva Bittova / Čikori
Жанр: Art-folk, Avant-Jazz
Год выпуска диска: 2001
Производитель диска: Czech Republic
Аудио кодек: FLAC
Тип рипа: image+.cue
Битрейт аудио: lossless
Продолжительность: 51:29
Трэклист:
1 Kočka
2 Mravenčí Síla
3 Křídla
4 Jungle
5 Přání
6 První
7 Polykaka Nožů
8 Zapískej
9 Kazu
Доп. информация: Музыка на стыке джаз-авангарда и арт-фолка.
Ива Биттова - моравская цыганка, этакая пушкинская Земфира. Скрипачка и актриса с юным лицом и девически стройной фигурой. Она вот уже лет пятнадцать с одной и той же очаровательн-капризной миной одновременно поет и играет вроде бы всего-навсего попурри из разных народных песен. Но иногда она лихо соединяет народные наигрыши с современной поэзией - да так, что порой неясно, скрипка ли говорит нежным женским голоском или, наоборот, голос изображает скрипку.
 
Отчет EAC
Exact Audio Copy V0.99 prebeta 3 from 28. July 2007
Отчёт EAC об извлечении, выполненном 1. марта 2009, 19:35
Iva Bittova / Cikori
Дисковод: YAMAHA CRW-F1E Adapter: 7 ID: 0
Режим чтения : Достоверность
Использование точного потока : Да
Отключение кэша аудио : Да
Использование указателей C2 : Нет
Коррекция смещения при чтении : 733
Способность читать области Lead-in и Lead-out : Нет
Заполнение пропущенных сэмплов тишиной : Да
Удаление блоков с тишиной в начале и конце : Нет
При вычислениях CRC использовались нулевые сэмплы : Да
Интерфейс : Встроенный Win32-интерфейс для Win NT/2000
Выходной формат : Пользовательский кодировщик
Выбранный битрейт : 256 kBit/s
Качество : Высокий
Добавление ID3-тэга : Нет
Утилита сжатия : C:\Program Files\flac-1.1.1-win\bin\flac.exe
Дополнительные параметры : -8 -V -T "ARTIST=%a" -T "TITLE=%t" -T "ALBUM=%g" -T "DATE=%y" -T "TRACKNUMBER=%n" -T "GENRE=%m" -T "COMMENT=EAC FLAC -8" %s
TOC извлечённого CD
Трек | Старт | Длительность | Начальный сектор | Конечный сектор
---------------------------------------------------------------------
1 | 0:00.00 | 6:10.57 | 0 | 27806
2 | 6:10.57 | 5:02.18 | 27807 | 50474
3 | 11:13.00 | 9:28.57 | 50475 | 93131
4 | 20:41.57 | 2:42.68 | 93132 | 105349
5 | 23:24.50 | 5:11.60 | 105350 | 128734
6 | 28:36.35 | 5:36.20 | 128735 | 153954
7 | 34:12.55 | 6:55.10 | 153955 | 185089
8 | 41:07.65 | 8:07.55 | 185090 | 221669
9 | 49:15.45 | 2:13.45 | 221670 | 231689
Характеристики диапазона извлечения и сообщения об ошибках
Выбранный диапазон
Имя файла I:\TorrentsUpload\Iva Bittova - Cikori\Iva Bittova - Cikori.wav
Пиковый уровень 97.7 %
Качество диапазона 99.9 %
CRC теста 5B7D951A
CRC копии 5B7D951A
Копирование... OK
Ошибок не произошло
AccurateRip: сводка
Трек 1 точность не определена (достоверность 2) [529B63E3], AccurateRip вернул [68318A4C]
Трек 2 точность не определена (достоверность 2) [1CC6CCFD], AccurateRip вернул [39BC4497]
Трек 3 точность не определена (достоверность 2) [EBD249DD], AccurateRip вернул [4431BFE2]
Трек 4 точность не определена (достоверность 2) [89AF3B20], AccurateRip вернул [8687FC75]
Трек 5 точность не определена (достоверность 2) [57EC4294], AccurateRip вернул [86531C6D]
Трек 6 точность не определена (достоверность 2) [F8B6A117], AccurateRip вернул [BC91EB9A]
Трек 7 точность не определена (достоверность 2) [CF68CC84], AccurateRip вернул [36337034]
Трек 8 точность не определена (достоверность 2) [54507C26], AccurateRip вернул [CFDBE6FC]
Трек 9 нет в базе данных
8 трек(и) не удалось проверить на точность
1 трек(и) не содержатся в базе AccurateRip
Ни один трек не прошёл проверки на точность
В вашей базе может быть иной вариант штамповки диска
Конец отчёта
От релизера:
Почему не подтвердился АккуратРип - понятия не имею.
Совершенно оригинальный чешский диск, хороший внешний привод, правильная настройка ЕАС.
Может действительно, в базу ранее попал другой релиз? Видимо так, т.к. набор треков тоже не совпадает.
Каково мнение экспертов?
По всем вопросам пишите личное сообщение пользователю M0p94ok.
05:12
292
Нет комментариев. Ваш будет первым!