Поиск

(Jazz, Latin Jazz, Bossa Nova) Antonio Carlos Jobim - Terra Brasilis - 1980, APE (image+.cue), lossless

(Jazz, Latin Jazz, Bossa Nova) Antonio Carlos Jobim - Terra Brasilis - 1980, APE (image+.cue), lossless
Треклист:
Antonio Carlos Jobim - Terra Brasilis
Жанр: Jazz, Latin Jazz, Bossa Nova
Год выпуска диска: 1980
Издание: WARNER BROTHERS (2-3409)
Аудио кодек: APE
Тип рипа: image+.cue
Продолжительность: 1:11:19
Трэклист:
1. Vivo Sonhando (Gene Lees) – 3:00
2. Canta Mais (Sing Once More) (Vinicius de Moraes) – 4:32
3. Olha Maria (Amparo) – 4:04
4. One Note Samba (Samba de Uma Nota Só) (Jon Hendricks, Newton Mendonça) – 2:17
5. Dindi (Aloysio de Oliveria, Ray Gilbert) – 4:13
6. Corcovado (Quiet Nights of Quiet Stars) (Lees) – 3:26
7. Marina – 2:41
8. Desafinado (Slightly Out of Tune) (Lees, Mendonça) – 3:24
9. Você Vai Ver (You'll See) – 2:55
10. Estrada Do Sol (Dolores Duran) – 2:04
11. The Girl from Ipanema (de Moraes, Norman Gimbel) – 4:47
12. Double Rainbow – 4:04
13. Triste – 3:03
14. Wave – 3:39
15. Someone to Light up My Life (Se Todos Fossem Iguais A Você) (de Moraes) – 3:03
16. Falando de Amor (Speaking of Love) – 3:39
17. Two Kites – 4:36
18. Modinha (de Moraes) – 3:37
19. The Song of the Sabiá (Sabiá) (Chico Buaraque, Gimbel) – 4:04
20. This Happy Madness (Estrada Branca) (de Moraes, Lees) – 2:49
Персоналии:
Antonio Carlos Jobim – piano, electric piano, guitar
Oscar Castro-Neves - guitar
Bob Cranshaw – double bass
Mike Moore - bass(7,12,16,17)
Pascoal Meirelles – drums
Grady Tate - drums (12)
Rubens Bassini – percussion
Bucky Pizzarelli – guitar (12)
Vinnie Bell - guitar (12)
Claus Ogerman – arranger/conductor
EAC:
 
скрытый текст
Exact Audio Copy V0.99 prebeta 4 from 23. January 2008
Отчёт EAC об извлечении, выполненном 14. сентября 2008, 12:16
Antonio Carlos Jobim / Terra Brasilis
Дисковод: PIONEER DVD-RW DVR-108 Adapter: 4 ID: 1
Режим чтения : Достоверность
Использование точного потока : Да
Отключение кэша аудио : Да
Использование указателей C2 : Нет
Коррекция смещения при чтении : 48
Способность читать области Lead-in и Lead-out : Нет
Заполнение пропущенных сэмплов тишиной : Да
Удаление блоков с тишиной в начале и конце : Нет
При вычислениях CRC использовались нулевые сэмплы : Да
Интерфейс : Встроенный Win32-интерфейс для Win NT/2000
Выходной формат : Внутренние WAV-операции
Формат сэмплов : 44.100 Гц; 16 бит; стерео
TOC извлечённого CD
Трек | Старт | Длительность | Начальный сектор | Конечный сектор
---------------------------------------------------------------------
1 | 0:00.00 | 3:05.67 | 0 | 13941
2 | 3:05.67 | 4:34.13 | 13942 | 34504
3 | 7:40.05 | 4:07.05 | 34505 | 53034
4 | 11:47.10 | 2:20.62 | 53035 | 63596
5 | 14:07.72 | 4:18.60 | 63597 | 83006
6 | 18:26.57 | 3:29.60 | 83007 | 98741
7 | 21:56.42 | 2:57.15 | 98742 | 112031
8 | 24:53.57 | 3:28.13 | 112032 | 127644
9 | 28:21.70 | 2:58.57 | 127645 | 141051
10 | 31:20.52 | 2:07.48 | 141052 | 150624
11 | 33:28.25 | 4:50.32 | 150625 | 172406
12 | 38:18.57 | 4:06.52 | 172407 | 190908
13 | 42:25.34 | 3:07.28 | 190909 | 204961
14 | 45:32.62 | 3:40.45 | 204962 | 221506
15 | 49:13.32 | 3:07.30 | 221507 | 235561
16 | 52:20.62 | 3:43.23 | 235562 | 252309
17 | 56:04.10 | 4:39.40 | 252310 | 273274
18 | 60:43.50 | 3:39.35 | 273275 | 289734
19 | 64:23.10 | 4:07.05 | 289735 | 308264
20 | 68:30.15 | 2:49.20 | 308265 | 320959
Характеристики диапазона извлечения и сообщения об ошибках
Выбранный диапазон
Имя файла J:\New Torrents\Antonio Carlos Jobim - Terra Brasilis\Antonio Carlos Jobim - Terra Brasilis.wav
Пиковый уровень 99.9 %
Качество диапазона 100.0 %
CRC копии 8621AA51
Копирование... OK
Ошибок не произошло
AccurateRip: сводка
Трек 1 нет в базе данных
Трек 2 нет в базе данных
Трек 3 нет в базе данных
Трек 4 нет в базе данных
Трек 5 нет в базе данных
Трек 6 нет в базе данных
Трек 7 нет в базе данных
Трек 8 нет в базе данных
Трек 9 нет в базе данных
Трек 10 нет в базе данных
Трек 11 нет в базе данных
Трек 12 нет в базе данных
Трек 13 нет в базе данных
Трек 14 нет в базе данных
Трек 15 нет в базе данных
Трек 16 нет в базе данных
Трек 17 нет в базе данных
Трек 18 нет в базе данных
Трек 19 нет в базе данных
Трек 20 нет в базе данных
Ни одного трека нет в базе AccurateRip
Конец отчёта
Сканы (300dpi, tif) вложены.
03:40
474
Нет комментариев. Ваш будет первым!