Поиск

(Jazz) Acoustic Unit - Acoustic Unit - 1998, FLAC (image+.cue), lossless

(Jazz) Acoustic Unit - Acoustic Unit - 1998, FLAC (image+.cue), lossless
Треклист:
Acoustic Unit - Acoustic Unit
Жанр: Jazz
Год выпуска диска: 1998
Производитель диска: Germany/GEMA/in-akustic GbmH & Co. KG
Аудио кодек: FLAC
Тип рипа: image+.cue
Битрейт аудио: lossless
Продолжительность: 44:18
Трэклист:
1 La Via 02:53
2 Big Moon-Small Town 06:15
3 You Do 02:59
4 Spirits and Butterflies 04:37
5 Peace 02:56
6 Opus 71/Freedom Dance 06:32
7 Monkey's Bossa 05:00
8 Blues Meditation 07:53
9 B.B. Waltz 01:05
10 Ode to a Rainforrest Tree 07:05
11 Biker's Fun 05:25
 
EAC report
Exact Audio Copy V0.99 prebeta 4 from 23. January 2008
EAC extraction logfile from 14. September 2008, 13:49
Accoustic Unit / Accoustic Unit
Used drive : LITE-ON DVDRW SOHW-1213S Adapter: 1 ID: 1
Read mode : Secure
Utilize accurate stream : Yes
Defeat audio cache : Yes
Make use of C2 pointers : No
Read offset correction : 12
Overread into Lead-In and Lead-Out : No
Fill up missing offset samples with silence : Yes
Delete leading and trailing silent blocks : No
Null samples used in CRC calculations : No
Used interface : Native Win32 interface for Win NT & 2000
Used output format : User Defined Encoder
Selected bitrate : 1024 kBit/s
Quality : High
Add ID3 tag : No
Command line compressor : C:\Program Files\Exact Audio Copy\Flac\FLAC.EXE
Additional command line options : -6 -V -T "ARTIST=%a" -T "TITLE=%t" -T "ALBUM=%g" -T "DATE=%y" -T "TRACKNUMBER=%n" -T "GENRE=%m" -T "COMMENT=%e" %s -o %d
TOC of the extracted CD
Track | Start | Length | Start sector | End sector
---------------------------------------------------------
1 | 0:00.00 | 2:53.40 | 0 | 13014
2 | 2:53.40 | 6:15.26 | 13015 | 41165
3 | 9:08.66 | 2:59.67 | 41166 | 54657
4 | 12:08.58 | 4:37.55 | 54658 | 75487
5 | 16:46.38 | 2:56.47 | 75488 | 88734
6 | 19:43.10 | 6:32.55 | 88735 | 118189
7 | 26:15.65 | 5:00.48 | 118190 | 140737
8 | 31:16.38 | 7:53.19 | 140738 | 176231
9 | 39:09.57 | 1:05.35 | 176232 | 181141
10 | 40:15.17 | 7:05.05 | 181142 | 213021
11 | 47:20.22 | 5:25.66 | 213022 | 237462
Range status and errors
Selected range
Filename C:\Acoustic Unit - Acoustic Unit\Accoustic Unit - Accoustic Unit.wav
Peak level 100.0 %
Range quality 100.0 %
Copy CRC 07E1E1EF
Copy OK
No errors occurred
AccurateRip summary
Track 1 not present in database
Track 2 not present in database
Track 3 not present in database
Track 4 not present in database
Track 5 not present in database
Track 6 not present in database
Track 7 not present in database
Track 8 not present in database
Track 9 not present in database
Track 10 not present in database
Track 11 not present in database
None of the tracks are present in the AccurateRip database
End of status report
Персоналии:
Dagobert Bohm Guitar (Acoustic), Guitar (Electric), Producer,
Tony Lakatos Flute, Saxophone, Sax (Soprano)
Bela Lattmann bass
Kornel Horvath Percussion, Latin Percussion
Guests:
Steven Toeteberg Keyboards
Christoph Weiss Cello
Manfred Zepf Double Bass
Bernhard Roessle Executive Producer
Engineer, Liner Notes, Mixing
Mick Franke Mastering, Mixing
Andreas Weindel Artwork, Design
Сканы 300dpi.
03:41
275
Нет комментариев. Ваш будет первым!