Поиск

(Jazz\Latin\Fusion) ANCESTORS - Folia De Reis - 1999, FLAC (tracks+.cue) lossless

Треклист:
ANCESTORS / Folia De Reis
Жанр: Jazz\Latin\Fusion
Год издания диска: 1999
Издатель (лейбл): Three Kings Records
Аудио кодек: FLAC (*.flac)
Тип рипа: tracks+.cue
Битрейт аудио: lossless
Продолжительность: 62:39
Источник (релизер): собственный рип
Наличие сканов в содержимом раздачи: да
Треклист:
01 - Interlude 1 [00:30]
02 - Ancestrains [05:17]
03 - Interlude II [00:21]
04 - Xote da Saudade [04:51]
05 - Interlude III [00:41]
06 - Guanabara [06:03]
07 - Interlude IV [00:32]
08 - Gaguinho [03:59]
09 - Interlude V [00:42]
10 - Folia de Reis [05:35]
11 - Interlude VI [00:23]
12 - Para Com Isso [02:50]
13 - Interlude VII [00:22]
14 - Bossa da Clea [05:41]
15 - Interlude VIII [00:51]
16 - Lamento dos Escravos [05:25]
17 - Interlude IX [00:20]
18 - Cheio de Esperanca [06:21]
19 - Interlude X [00:16]
20 - Sarara [04:38]
21 - Interlude XI [00:25]
22 - Three Expressa [04:30]
23 - Prenda Minha [00:59]
24 - Interlude XII [00:35]
25 - Interlude XIII [00:21]
 
Лог создания рипа
Exact Audio Copy V0.99 prebeta 5 from 4. May 2009
EAC extraction logfile from 3. September 2010, 11:46
ANCESTORS / Folia De Reis
Used drive : PLEXTOR DVDR PX-755A Adapter: 4 ID: 0
Read mode : Secure
Utilize accurate stream : Yes
Defeat audio cache : Yes
Make use of C2 pointers : No
Read offset correction : 30
Overread into Lead-In and Lead-Out : Yes
Fill up missing offset samples with silence : Yes
Delete leading and trailing silent blocks : No
Null samples used in CRC calculations : Yes
Used interface : Native Win32 interface for Win NT & 2000
Gap handling : Appended to previous track
Used output format : User Defined Encoder
Selected bitrate : 128 kBit/s
Quality : High
Add ID3 tag : No
Command line compressor : C:\Program Files\FLAC\flac.exe
Additional command line options : -8 -V -T "ARTIST=%a" -T "TITLE=%t" -T "ALBUM=%g" -T "DATE=%y" -T "TRACKNUMBER=%n" -T "GENRE=%m" -T "COMMENT=Ripped by andygrakoff aka yetiisyou" %s
TOC of the extracted CD
Track | Start | Length | Start sector | End sector
---------------------------------------------------------
1 | 0:00.00 | 0:30.64 | 0 | 2313
2 | 0:30.64 | 5:17.16 | 2314 | 26104
3 | 5:48.05 | 0:21.64 | 26105 | 27743
4 | 6:09.69 | 4:51.65 | 27744 | 49633
5 | 11:01.59 | 0:41.27 | 49634 | 52735
6 | 11:43.11 | 6:03.66 | 52736 | 80026
7 | 17:47.02 | 0:32.14 | 80027 | 82440
8 | 18:19.16 | 3:59.07 | 82441 | 100372
9 | 22:18.23 | 0:42.06 | 100373 | 103528
10 | 23:00.29 | 5:35.13 | 103529 | 128666
11 | 28:35.42 | 0:23.34 | 128667 | 130425
12 | 28:59.01 | 2:50.34 | 130426 | 143209
13 | 31:49.35 | 0:22.73 | 143210 | 144932
14 | 32:12.33 | 5:41.02 | 144933 | 170509
15 | 37:53.35 | 0:51.61 | 170510 | 174395
16 | 38:45.21 | 5:25.46 | 174396 | 198816
17 | 44:10.67 | 0:20.20 | 198817 | 200336
18 | 44:31.12 | 6:21.67 | 200337 | 228978
19 | 50:53.04 | 0:16.23 | 228979 | 230201
20 | 51:09.27 | 4:38.00 | 230202 | 251051
21 | 55:47.27 | 0:25.60 | 251052 | 252986
22 | 56:13.12 | 4:30.64 | 252987 | 273300
23 | 60:44.01 | 0:59.00 | 273301 | 277725
24 | 61:43.01 | 0:35.07 | 277726 | 280357
25 | 62:18.08 | 0:21.37 | 280358 | 281969
Track 1
Filename C:\!Rips\ANCESTORS - Folia De Reis 1999\01 – Interlude 1.wav
Pre-gap length 0:00:02.00
Peak level 50.1 %
Track quality 99.6 %
Test CRC 863C3C47
Copy CRC 863C3C47
Track not present in AccurateRip database
Copy OK
Track 2
Filename C:\!Rips\ANCESTORS - Folia De Reis 1999\02 – Ancestrains.wav
Pre-gap length 0:00:00.85
Peak level 89.1 %
Track quality 100.0 %
Test CRC F32DCFCA
Copy CRC F32DCFCA
Track not present in AccurateRip database
Copy OK
Track 3
Filename C:\!Rips\ANCESTORS - Folia De Reis 1999\03 – Interlude II.wav
Pre-gap length 0:00:00.90
Peak level 69.2 %
Track quality 100.0 %
Test CRC 9BE6441F
Copy CRC 9BE6441F
Track not present in AccurateRip database
Copy OK
Track 4
Filename C:\!Rips\ANCESTORS - Folia De Reis 1999\04 – Xote da Saudade.wav
Pre-gap length 0:00:01.84
Peak level 65.3 %
Track quality 99.9 %
Test CRC D05308FD
Copy CRC D05308FD
Track not present in AccurateRip database
Copy OK
Track 5
Filename C:\!Rips\ANCESTORS - Folia De Reis 1999\05 – Interlude III.wav
Pre-gap length 0:00:02.18
Peak level 53.5 %
Track quality 100.0 %
Test CRC 055E1931
Copy CRC 055E1931
Track not present in AccurateRip database
Copy OK
Track 6
Filename C:\!Rips\ANCESTORS - Folia De Reis 1999\06 – Guanabara.wav
Pre-gap length 0:00:01.82
Peak level 89.1 %
Track quality 100.0 %
Test CRC 80F45FE1
Copy CRC 80F45FE1
Track not present in AccurateRip database
Copy OK
Track 7
Filename C:\!Rips\ANCESTORS - Folia De Reis 1999\07 – Interlude IV.wav
Pre-gap length 0:00:01.82
Peak level 64.1 %
Track quality 99.6 %
Test CRC 76DC04D8
Copy CRC 76DC04D8
Track not present in AccurateRip database
Copy OK
Track 8
Filename C:\!Rips\ANCESTORS - Folia De Reis 1999\08 – Gaguinho.wav
Pre-gap length 0:00:01.93
Peak level 97.6 %
Track quality 99.9 %
Test CRC 919CBFFF
Copy CRC 919CBFFF
Track not present in AccurateRip database
Copy OK
Track 9
Filename C:\!Rips\ANCESTORS - Folia De Reis 1999\09 – Interlude V.wav
Pre-gap length 0:00:03.13
Peak level 59.1 %
Track quality 100.0 %
Test CRC 899DCE4E
Copy CRC 899DCE4E
Track not present in AccurateRip database
Copy OK
Track 10
Filename C:\!Rips\ANCESTORS - Folia De Reis 1999\10 – Folia de Reis.wav
Pre-gap length 0:00:01.81
Peak level 99.7 %
Track quality 100.0 %
Test CRC ED93A76C
Copy CRC ED93A76C
Track not present in AccurateRip database
Copy OK
Track 11
Filename C:\!Rips\ANCESTORS - Folia De Reis 1999\11 – Interlude VI.wav
Pre-gap length 0:00:03.33
Peak level 89.1 %
Track quality 100.0 %
Test CRC 61F207D6
Copy CRC 61F207D6
Track not present in AccurateRip database
Copy OK
Track 12
Filename C:\!Rips\ANCESTORS - Folia De Reis 1999\12 – Para Com Isso.wav
Pre-gap length 0:00:02.84
Peak level 87.4 %
Track quality 100.0 %
Test CRC 52F1D3F2
Copy CRC 52F1D3F2
Track not present in AccurateRip database
Copy OK
Track 13
Filename C:\!Rips\ANCESTORS - Folia De Reis 1999\13 – Interlude VII.wav
Pre-gap length 0:00:02.80
Peak level 48.1 %
Track quality 100.0 %
Test CRC CA175F79
Copy CRC CA175F79
Track not present in AccurateRip database
Copy OK
Track 14
Filename C:\!Rips\ANCESTORS - Folia De Reis 1999\14 – Bossa da Clea.wav
Pre-gap length 0:00:01.84
Peak level 89.1 %
Track quality 99.9 %
Test CRC FA2374B6
Copy CRC FA2374B6
Track not present in AccurateRip database
Copy OK
Track 15
Filename C:\!Rips\ANCESTORS - Folia De Reis 1999\15 – Interlude VIII.wav
Pre-gap length 0:00:04.84
Peak level 45.0 %
Track quality 99.7 %
Test CRC DC26E0F6
Copy CRC DC26E0F6
Track not present in AccurateRip database
Copy OK
Track 16
Filename C:\!Rips\ANCESTORS - Folia De Reis 1999\16 – Lamento dos Escravos.wav
Pre-gap length 0:00:00.88
Peak level 70.4 %
Track quality 100.0 %
Test CRC F55DF9B3
Copy CRC F55DF9B3
Track not present in AccurateRip database
Copy OK
Track 17
Filename C:\!Rips\ANCESTORS - Folia De Reis 1999\17 – Interlude IX.wav
Pre-gap length 0:00:01.85
Peak level 56.2 %
Track quality 99.4 %
Test CRC F685D19E
Copy CRC F685D19E
Track not present in AccurateRip database
Copy OK
Track 18
Filename C:\!Rips\ANCESTORS - Folia De Reis 1999\18 – Cheio de Esperanca.wav
Pre-gap length 0:00:01.82
Peak level 89.1 %
Track quality 99.9 %
Test CRC EA642D1C
Copy CRC EA642D1C
Track not present in AccurateRip database
Copy OK
Track 19
Filename C:\!Rips\ANCESTORS - Folia De Reis 1999\19 – Interlude X.wav
Pre-gap length 0:00:01.96
Peak level 40.5 %
Track quality 100.0 %
Test CRC 5CB95A3A
Copy CRC 5CB95A3A
Track not present in AccurateRip database
Copy OK
Track 20
Filename C:\!Rips\ANCESTORS - Folia De Reis 1999\20 – Sarara.wav
Pre-gap length 0:00:00.65
Peak level 89.1 %
Track quality 100.0 %
Test CRC 16263A26
Copy CRC 16263A26
Track not present in AccurateRip database
Copy OK
Track 21
Filename C:\!Rips\ANCESTORS - Folia De Reis 1999\21 – Interlude XI.wav
Pre-gap length 0:00:03.82
Peak level 79.4 %
Track quality 100.0 %
Test CRC 8A9E6C60
Copy CRC 8A9E6C60
Track not present in AccurateRip database
Copy OK
Track 22
Filename C:\!Rips\ANCESTORS - Folia De Reis 1999\22 – Three Expressa.wav
Pre-gap length 0:00:01.88
Peak level 89.1 %
Track quality 100.0 %
Test CRC 2DDBD4E7
Copy CRC 2DDBD4E7
Track not present in AccurateRip database
Copy OK
Track 23
Filename C:\!Rips\ANCESTORS - Folia De Reis 1999\23 – Prenda Minha.wav
Pre-gap length 0:00:01.84
Peak level 54.2 %
Track quality 100.0 %
Test CRC C7EF70FA
Copy CRC C7EF70FA
Track not present in AccurateRip database
Copy OK
Track 24
Filename C:\!Rips\ANCESTORS - Folia De Reis 1999\24 – Interlude XII.wav
Pre-gap length 0:00:00.56
Peak level 50.1 %
Track quality 100.0 %
Test CRC 5DF3BDA8
Copy CRC 5DF3BDA8
Track not present in AccurateRip database
Copy OK
Track 25
Filename C:\!Rips\ANCESTORS - Folia De Reis 1999\25 – Interlude XIII.wav
Peak level 63.0 %
Track quality 100.0 %
Test CRC F668E89D
Copy CRC F668E89D
Track not present in AccurateRip database
Copy OK
None of the tracks are present in the AccurateRip database
No errors occurred
End of status report
 
Содержание индексной карты (.CUE)
REM GENRE Jazz
REM DISCID 450EAF19
REM COMMENT "ExactAudioCopy v0.99pb5"
PERFORMER "ANCESTORS"
TITLE "Folia De Reis"
FILE "01 – Interlude 1.wav" WAVE
TRACK 01 AUDIO
TITLE "Interlude 1"
PERFORMER "ANCESTORS"
INDEX 01 00:00:00
TRACK 02 AUDIO
TITLE "Ancestrains"
PERFORMER "ANCESTORS"
INDEX 00 00:30:00
FILE "02 – Ancestrains.wav" WAVE
INDEX 01 00:00:00
TRACK 03 AUDIO
TITLE "Interlude II"
PERFORMER "ANCESTORS"
INDEX 00 05:16:23
FILE "03 – Interlude II.wav" WAVE
INDEX 01 00:00:00
TRACK 04 AUDIO
TITLE "Xote da Saudade"
PERFORMER "ANCESTORS"
INDEX 00 00:20:01
FILE "04 – Xote da Saudade.wav" WAVE
INDEX 01 00:00:00
TRACK 05 AUDIO
TITLE "Interlude III"
PERFORMER "ANCESTORS"
INDEX 00 04:49:51
FILE "05 – Interlude III.wav" WAVE
INDEX 01 00:00:00
TRACK 06 AUDIO
TITLE "Guanabara"
PERFORMER "ANCESTORS"
INDEX 00 00:39:40
FILE "06 – Guanabara.wav" WAVE
INDEX 01 00:00:00
TRACK 07 AUDIO
TITLE "Interlude IV"
PERFORMER "ANCESTORS"
INDEX 00 06:02:04
FILE "07 – Interlude IV.wav" WAVE
INDEX 01 00:00:00
TRACK 08 AUDIO
TITLE "Gaguinho"
PERFORMER "ANCESTORS"
INDEX 00 00:30:19
FILE "08 – Gaguinho.wav" WAVE
INDEX 01 00:00:00
TRACK 09 AUDIO
TITLE "Interlude V"
PERFORMER "ANCESTORS"
INDEX 00 03:55:72
FILE "09 – Interlude V.wav" WAVE
INDEX 01 00:00:00
TRACK 10 AUDIO
TITLE "Folia de Reis"
PERFORMER "ANCESTORS"
INDEX 00 00:40:20
FILE "10 – Folia de Reis.wav" WAVE
INDEX 01 00:00:00
TRACK 11 AUDIO
TITLE "Interlude VI"
PERFORMER "ANCESTORS"
INDEX 00 05:31:63
FILE "11 – Interlude VI.wav" WAVE
INDEX 01 00:00:00
TRACK 12 AUDIO
TITLE "Para Com Isso"
PERFORMER "ANCESTORS"
INDEX 00 00:20:46
FILE "12 – Para Com Isso.wav" WAVE
INDEX 01 00:00:00
TRACK 13 AUDIO
TITLE "Interlude VII"
PERFORMER "ANCESTORS"
INDEX 00 02:47:49
FILE "13 – Interlude VII.wav" WAVE
INDEX 01 00:00:00
TRACK 14 AUDIO
TITLE "Bossa da Clea"
PERFORMER "ANCESTORS"
INDEX 00 00:21:10
FILE "14 – Bossa da Clea.wav" WAVE
INDEX 01 00:00:00
TRACK 15 AUDIO
TITLE "Interlude VIII"
PERFORMER "ANCESTORS"
INDEX 00 05:36:14
FILE "15 – Interlude VIII.wav" WAVE
INDEX 01 00:00:00
TRACK 16 AUDIO
TITLE "Lamento dos Escravos"
PERFORMER "ANCESTORS"
INDEX 00 00:50:70
FILE "16 – Lamento dos Escravos.wav" WAVE
INDEX 01 00:00:00
TRACK 17 AUDIO
TITLE "Interlude IX"
PERFORMER "ANCESTORS"
INDEX 00 05:23:57
FILE "17 – Interlude IX.wav" WAVE
INDEX 01 00:00:00
TRACK 18 AUDIO
TITLE "Cheio de Esperanca"
PERFORMER "ANCESTORS"
INDEX 00 00:18:33
FILE "18 – Cheio de Esperanca.wav" WAVE
INDEX 01 00:00:00
TRACK 19 AUDIO
TITLE "Interlude X"
PERFORMER "ANCESTORS"
INDEX 00 06:19:70
FILE "19 – Interlude X.wav" WAVE
INDEX 01 00:00:00
TRACK 20 AUDIO
TITLE "Sarara"
PERFORMER "ANCESTORS"
INDEX 00 00:15:49
FILE "20 – Sarara.wav" WAVE
INDEX 01 00:00:00
TRACK 21 AUDIO
TITLE "Interlude XI"
PERFORMER "ANCESTORS"
INDEX 00 04:34:13
FILE "21 – Interlude XI.wav" WAVE
INDEX 01 00:00:00
TRACK 22 AUDIO
TITLE "Three Expressa"
PERFORMER "ANCESTORS"
INDEX 00 00:23:69
FILE "22 – Three Expressa.wav" WAVE
INDEX 01 00:00:00
TRACK 23 AUDIO
TITLE "Prenda Minha"
PERFORMER "ANCESTORS"
INDEX 00 04:29:01
FILE "23 – Prenda Minha.wav" WAVE
INDEX 01 00:00:00
TRACK 24 AUDIO
TITLE "Interlude XII"
PERFORMER "ANCESTORS"
INDEX 00 00:58:33
FILE "24 – Interlude XII.wav" WAVE
INDEX 01 00:00:00
FILE "25 – Interlude XIII.wav" WAVE
TRACK 25 AUDIO
TITLE "Interlude XIII"
PERFORMER "ANCESTORS"
INDEX 01 00:00:00
17:51
246
Нет комментариев. Ваш будет первым!