Поиск

(Fusion, Jazz-Funk, Contemporary Jazz, Tzadik) Fima Ephron - Soul Machine - 2001, FLAC (tracks+.cue) lossless

Треклист:
Fima Ephron / Soul Machine
Жанр: Fusion, Jazz-Funk, Contemporary Jazz
Страна-производитель диска: US
Год издания диска: 2001
Издатель (лейбл): Tzadik
Номер по каталогу: TZ 7152
Аудио кодек: FLAC (*.flac)
Тип рипа: tracks+.cue
Битрейт аудио: lossless
Продолжительность: 44:13
Источник (релизер): собственный рип
Наличие сканов в содержимом раздачи: да
Треклист:
01 Fima Ephron - Yemeniite [02:22]
02 Fima Ephron - Haisidic Folk Song [06:22]
03 Fima Ephron - Pyramid [05:37]
04 Fima Ephron - Oyfin [02:48]
05 Fima Ephron - Yashkar [04:19]
06 Fima Ephron - Moses [06:19]
07 Fima Ephron - A Desert Storm [06:20]
08 Fima Ephron - Scroll [01:58]
09 Fima Ephron - Dead Play Of Numbers [05:39]
10 Fima Ephron - Noir [02:25]
 
Лог создания рипа
Exact Audio Copy V0.99 prebeta 5 from 4. May 2009
EAC extraction logfile from 3. September 2010, 16:04
Fima Ephron / Soul Machine
Used drive : PLEXTOR DVDR PX-755A Adapter: 4 ID: 0
Read mode : Secure
Utilize accurate stream : Yes
Defeat audio cache : Yes
Make use of C2 pointers : No
Read offset correction : 30
Overread into Lead-In and Lead-Out : Yes
Fill up missing offset samples with silence : Yes
Delete leading and trailing silent blocks : No
Null samples used in CRC calculations : Yes
Used interface : Native Win32 interface for Win NT & 2000
Gap handling : Appended to previous track
Used output format : User Defined Encoder
Selected bitrate : 128 kBit/s
Quality : High
Add ID3 tag : No
Command line compressor : C:\Program Files\FLAC\flac.exe
Additional command line options : -8 -V -T "ARTIST=%a" -T "TITLE=%t" -T "ALBUM=%g" -T "DATE=%y" -T "TRACKNUMBER=%n" -T "GENRE=%m" -T "COMMENT=Ripped by andygrakoff aka yetiisyou" %s
TOC of the extracted CD
Track | Start | Length | Start sector | End sector
---------------------------------------------------------
1 | 0:00.00 | 2:22.00 | 0 | 10649
2 | 2:22.00 | 6:22.60 | 10650 | 39359
3 | 8:44.60 | 5:37.72 | 39360 | 64706
4 | 14:22.57 | 2:48.18 | 64707 | 77324
5 | 17:11.00 | 4:19.54 | 77325 | 96803
6 | 21:30.54 | 6:19.18 | 96804 | 125246
7 | 27:49.72 | 6:20.15 | 125247 | 153761
8 | 34:10.12 | 1:58.20 | 153762 | 162631
9 | 36:08.32 | 5:39.55 | 162632 | 188111
10 | 41:48.12 | 2:25.63 | 188112 | 199049
Track 1
Filename C:\!Rips\Fima Ephron - Soul Machine 2001 (TZ 7152)\01 – Yemeniite.wav
Pre-gap length 0:00:02.00
Peak level 99.1 %
Track quality 100.0 %
Test CRC 4AE201FC
Copy CRC 4AE201FC
Accurately ripped (confidence 1) [B19F3130]
Copy OK
Track 2
Filename C:\!Rips\Fima Ephron - Soul Machine 2001 (TZ 7152)\02 – Haisidic Folk Song.wav
Peak level 100.0 %
Track quality 100.0 %
Test CRC 5B6678CE
Copy CRC 5B6678CE
Accurately ripped (confidence 1) [89919BF3]
Copy OK
Track 3
Filename C:\!Rips\Fima Ephron - Soul Machine 2001 (TZ 7152)\03 – Pyramid.wav
Peak level 100.0 %
Track quality 100.0 %
Test CRC A09D73DF
Copy CRC A09D73DF
Accurately ripped (confidence 1) [A449D851]
Copy OK
Track 4
Filename C:\!Rips\Fima Ephron - Soul Machine 2001 (TZ 7152)\04 – Oyfin.wav
Peak level 35.2 %
Track quality 100.0 %
Test CRC AD8DCE14
Copy CRC AD8DCE14
Accurately ripped (confidence 1) [404A9F8D]
Copy OK
Track 5
Filename C:\!Rips\Fima Ephron - Soul Machine 2001 (TZ 7152)\05 – Yashkar.wav
Peak level 100.0 %
Track quality 100.0 %
Test CRC 4013D7FD
Copy CRC 4013D7FD
Accurately ripped (confidence 1) [1193152E]
Copy OK
Track 6
Filename C:\!Rips\Fima Ephron - Soul Machine 2001 (TZ 7152)\06 – Moses.wav
Peak level 85.2 %
Track quality 100.0 %
Test CRC 87A550BC
Copy CRC 87A550BC
Accurately ripped (confidence 1) [84597A92]
Copy OK
Track 7
Filename C:\!Rips\Fima Ephron - Soul Machine 2001 (TZ 7152)\07 – A Desert Storm.wav
Peak level 99.3 %
Track quality 99.9 %
Test CRC 35EABB06
Copy CRC 35EABB06
Accurately ripped (confidence 1) [7350A620]
Copy OK
Track 8
Filename C:\!Rips\Fima Ephron - Soul Machine 2001 (TZ 7152)\08 – Scroll.wav
Peak level 73.9 %
Track quality 100.0 %
Test CRC 88299E80
Copy CRC 88299E80
Accurately ripped (confidence 1) [72C67A3B]
Copy OK
Track 9
Filename C:\!Rips\Fima Ephron - Soul Machine 2001 (TZ 7152)\09 – Dead Play Of Numbers.wav
Peak level 96.1 %
Track quality 100.0 %
Test CRC 89BD4DB9
Copy CRC 89BD4DB9
Accurately ripped (confidence 1) [5DEA01F7]
Copy OK
Track 10
Filename C:\!Rips\Fima Ephron - Soul Machine 2001 (TZ 7152)\10 – Noir.wav
Pre-gap length 0:00:09.49
Peak level 43.9 %
Track quality 100.0 %
Test CRC D9B68922
Copy CRC D9B68922
Accurately ripped (confidence 1) [D72897FA]
Copy OK
All tracks accurately ripped
No errors occurred
End of status report
 
Содержание индексной карты (.CUE)
REM GENRE "Contemporary Jazz"
REM DATE 2001
REM DISCID 690A5E0A
REM COMMENT "ExactAudioCopy v0.99pb5"
PERFORMER "Fima Ephron"
TITLE "Soul Machine"
FILE "01 – Yemeniite.wav" WAVE
TRACK 01 AUDIO
TITLE "Yemeniite"
PERFORMER "Fima Ephron"
INDEX 01 00:00:00
FILE "02 – Haisidic Folk Song.wav" WAVE
TRACK 02 AUDIO
TITLE "Haisidic Folk Song"
PERFORMER "Fima Ephron"
INDEX 01 00:00:00
FILE "03 – Pyramid.wav" WAVE
TRACK 03 AUDIO
TITLE "Pyramid"
PERFORMER "Fima Ephron"
INDEX 01 00:00:00
FILE "04 – Oyfin.wav" WAVE
TRACK 04 AUDIO
TITLE "Oyfin"
PERFORMER "Fima Ephron"
INDEX 01 00:00:00
FILE "05 – Yashkar.wav" WAVE
TRACK 05 AUDIO
TITLE "Yashkar"
PERFORMER "Fima Ephron"
INDEX 01 00:00:00
FILE "06 – Moses.wav" WAVE
TRACK 06 AUDIO
TITLE "Moses"
PERFORMER "Fima Ephron"
INDEX 01 00:00:00
FILE "07 – A Desert Storm.wav" WAVE
TRACK 07 AUDIO
TITLE "A Desert Storm"
PERFORMER "Fima Ephron"
INDEX 01 00:00:00
FILE "08 – Scroll.wav" WAVE
TRACK 08 AUDIO
TITLE "Scroll"
PERFORMER "Fima Ephron"
INDEX 01 00:00:00
FILE "09 – Dead Play Of Numbers.wav" WAVE
TRACK 09 AUDIO
TITLE "Dead Play Of Numbers"
PERFORMER "Fima Ephron"
INDEX 01 00:00:00
TRACK 10 AUDIO
TITLE "Noir"
PERFORMER "Fima Ephron"
INDEX 00 05:30:18
FILE "10 – Noir.wav" WAVE
INDEX 01 00:00:00
16:50
232
Нет комментариев. Ваш будет первым!