Поиск

(Jazz, Latin) [CD] Herbie Mann - Standing Ovation At Newport - 2000, FLAC (image+.cue), lossless

(Jazz, Latin) [CD] Herbie Mann - Standing Ovation At Newport - 2000, FLAC (image+.cue), lossless
Треклист:
Herbie Mann / Standing Ovation At Newport
Жанр: Jazz, Latin
Носитель: CD
Страна-производитель диска (релиза): USA
Год издания: 2000
Издатель (лейбл): Wounded Bird Records
Номер по каталогу: WOU 1445
Страна исполнителя (группы): USA
Аудиокодек: FLAC (*.flac)
Тип рипа: image+.cue
Битрейт аудио: lossless
Продолжительность: 34:49
Источник (релизер): rip itr
Наличие сканов в содержимом раздачи: да
Треклист:
1. Patato (Dave Pike) 08:21
2. Stolen Moments (Oliver Nelson) 09:35
3. Mushi Mushi (Herbie Mann) 06:02
4. Comin' Home Baby (Ben Tucker/Bob Dorough) 10:51
 
Лог создания рипа
Exact Audio Copy V1.0 beta 3 from 29. August 2011
EAC extraction logfile from 11. October 2015, 12:49
Herbie Mann / Standing Ovation at Newport
Used drive : Optiarc DVD RW AD-7250H Adapter: 0 ID: 0
Read mode : Burst
Read offset correction : 48
Overread into Lead-In and Lead-Out : No
Fill up missing offset samples with silence : Yes
Delete leading and trailing silent blocks : No
Null samples used in CRC calculations : Yes
Used interface : Native Win32 interface for Win NT & 2000
Used output format : User Defined Encoder
Selected bitrate : 1024 kBit/s
Quality : High
Add ID3 tag : No
Command line compressor : C:\Program Files (x86)\Exact Audio Copy\Flac\flac.exe
Additional command line options : -8 -V -T "TITLE=%title%" -T "ARTIST=%artist%" -T "ALBUMARTIST=%albumartist%" -T "ALBUM=%albumtitle%" -T "DATE=%year%" -T "TRACKNUMBER=%tracknr%" -T "TRACKTOTAL=%numtracks%" -T "GENRE=%genre%" -T "COMMENT=%comment%" -T "PERFORMER=%albuminterpret%" -T "COMPOSER=%composer%" %source% -o %dest%
TOC of the extracted CD
Track | Start | Length | Start sector | End sector
---------------------------------------------------------
1 | 0:00.00 | 8:21.60 | 0 | 37634
2 | 8:21.60 | 9:35.53 | 37635 | 80812
3 | 17:57.38 | 6:02.52 | 80813 | 108014
4 | 24:00.15 | 10:51.59 | 108015 | 156898
Range status and errors
Selected range
Filename F:\Users\Zoli\Music\Rip\Herbie Mann - Standing Ovation at Newport\Herbie Mann - Standing Ovation at Newport.wav
Timing problem 0:00:52
Timing problem 0:01:45
Peak level 100.0 %
Extraction speed 17.9 X
Copy CRC 990D4090
Copy finished
No errors occurred
AccurateRip summary
Track 1 accurately ripped (confidence 1) [1500269E] (AR v1)
Track 2 accurately ripped (confidence 1) [54166C56] (AR v1)
Track 3 accurately ripped (confidence 1) [312A7FC3] (AR v1)
Track 4 accurately ripped (confidence 1) [340F4341] (AR v1)
All tracks accurately ripped
End of status report
 
Содержание индексной карты (.CUE)
REM GENRE Jazz
REM DATE 1965
REM DISCID 26082B04
REM COMMENT "ExactAudioCopy v1.0b3"
PERFORMER "Herbie Mann"
TITLE "Standing Ovation at Newport"
FILE "Herbie Mann - Standing Ovation at Newport.flac" WAVE
TRACK 01 AUDIO
TITLE "Patato"
PERFORMER "Herbie Mann"
INDEX 01 00:00:00
TRACK 02 AUDIO
TITLE "Stolen Moments"
PERFORMER "Herbie Mann"
INDEX 00 08:19:60
INDEX 01 08:21:60
TRACK 03 AUDIO
TITLE "Mushi Mushi"
PERFORMER "Herbie Mann"
INDEX 00 17:55:38
INDEX 01 17:57:38
TRACK 04 AUDIO
TITLE "Comin' Home Baby"
PERFORMER "Herbie Mann"
INDEX 00 23:58:15
INDEX 01 24:00:15
 
Об альбоме (сборнике)
The performance by Herbie Mann's group was one of the high points of the 1965 Newport Jazz Festival. This album includes Mann's "Mushi Mushi" from an earlier date, but it is the lengthy versions of "Patato," "Stolen Moments," and particularly the encore "Comin' Home Baby" from Newport that are most memorable. During this period, the flutist's group included vibraphonist Dave Pike, two trombonists, the young Chick Corea on piano, bassist Earl May, drummer Bruno Carr, and Patato Valdes on conga. For "Comin' Home Baby," composer Ben Tucker, who had played earlier in the day as part of Billy Taylor's Trio, sits in on bass.
- by Scott Yanow, AMG
 
Состав
Herbie Mann (Flutes)
John Hitchcock (Trombone)
Chick Corea (Piano)
Dave Pike (Vibes)
Earl May (Double Bass) - 1-3
Ben Tucker (Double Bass) - 4
Bruno Carr (Drums)
Carlos "Patato" Valdes (Congas)
19:40
326
Нет комментариев. Ваш будет первым!