Поиск

(Ethnic Jazz, Harp, Colombian, World, Neo Classical) [CD] Edmar Castaneda (ft Marshall Gilkes, Dave Silliman, John Scofield, Joe Locke, Samuel Torres, Andrea Tierra) - Entre Cuerdas - 2009, FLAC (tracks+.cue), lossless

(Ethnic Jazz, Harp, Colombian, World, Neo Classical) [CD] Edmar Castaneda (ft Marshall Gilkes, Dave Silliman, John Scofield, Joe Locke, Samuel Torres, Andrea Tierra) - Entre Cuerdas - 2009, FLAC (tracks+.cue), lossless
Edmar Castañeda / Entre Cuerdas Я считаю, что игра на арфе – дар Божий... Я поклоняюсь Богу своей музыкой.
Эдмар Кастанеда Жанр: Ethnic Jazz, Harp, Colombian, World, Neo Classical
Носитель: CD
Страна-производитель диска (релиза): USA
Год издания: 2009
Издатель (лейбл): Artistshare
Номер по каталогу: AS0095
Страна исполнителя (группы): Colombia
Аудиокодек: FLAC (*.flac)
Тип рипа: tracks+.cue
Битрейт аудио: lossless
Продолжительность: 00:59:03
Источник (релизер): вата (благодарности jozeluiz)
Наличие сканов в содержимом раздачи: да
Треклист:
1 Sabroson (ft John Scofield) 5:39
2 Entre Cuerdas 8:03
3 Jesus De Nazareth 6:19
4 Colibri (ft Joe Locke) 6:43
5 Song Of Hope (ft Samuel Torres & Joe Locke) 7:15
6 Colombian Dixie 6:06
7 Canto (ft Andrea Tierra) 6:11
8 Looking Forward (composed by Marshall Gilkes) 7:39
9 Afro Seis 5:08
Видео для аппетита:
Доп. информация: http://www.edmarcastaneda.com/
 
Лог создания рипа
X Lossless Decoder version 20141129 (148.1)
XLD extraction logfile from 2015-01-14 06:03:53 -0500
Edmar Castaneda / Entre Cuerdas
Used drive : HL-DT-ST DVDRW GX30N (revision RP09)
Media type : Pressed CD
Ripper mode : XLD Secure Ripper
Disable audio cache : OK for the drive with a cache less than 1375KiB
Make use of C2 pointers : NO
Read offset correction : 6
Max retry count : 100
Gap status : Analyzed, Appended
TOC of the extracted CD
Track | Start | Length | Start sector | End sector
---------------------------------------------------------
1 | 00:00:00 | 05:38:45 | 0 | 25394
2 | 05:38:45 | 08:03:25 | 25395 | 61644
3 | 13:41:70 | 06:19:12 | 61645 | 90081
4 | 20:01:07 | 06:43:13 | 90082 | 120319
5 | 26:44:20 | 07:15:12 | 120320 | 152956
6 | 33:59:32 | 06:05:73 | 152957 | 180404
7 | 40:05:30 | 06:11:00 | 180405 | 208229
8 | 46:16:30 | 07:38:65 | 208230 | 242644
9 | 53:55:20 | 05:07:60 | 242645 | 265729
AccurateRip Summary (DiscID: 00148f51-0096d5f8-640dd709)
Track 01 : OK (v2, confidence 3/3)
Track 02 : OK (v2, confidence 3/3)
Track 03 : OK (v2, confidence 3/3)
Track 04 : OK (v2, confidence 3/3)
Track 05 : OK (v2, confidence 3/3)
Track 06 : OK (v2, confidence 3/3)
Track 07 : OK (v2, confidence 3/3)
Track 08 : OK (v2, confidence 3/3)
Track 09 : OK (v2, confidence 3/3)
->All tracks accurately ripped.
All Tracks
Album gain : -8.15 dB
Peak : 0.997437
Statistics
Read error : 0
Jitter error (maybe fixed) : 0
Retry sector count : 0
Damaged sector count : 0
Track 01
Filename : /Volumes/Daiki/Music/What.CD/uploads/Edmar Castaneda - Entre Cuerdas (2009) [FLAC]/01 Sabroson.flac
Pre-gap length : 00:02:00
Track gain : -8.76 dB
Peak : 0.996857
CRC32 hash (test run) : D71F0B58
CRC32 hash : D71F0B58
CRC32 hash (skip zero) : 8ADD0950
AccurateRip v1 signature : C4FE86C7
AccurateRip v2 signature : 54A70934
->Accurately ripped (v2, confidence 3/3)
Statistics
Read error : 0
Jitter error (maybe fixed) : 0
Retry sector count : 0
Damaged sector count : 0
Track 02
Filename : /Volumes/Daiki/Music/What.CD/uploads/Edmar Castaneda - Entre Cuerdas (2009) [FLAC]/02 Entre Cuerdas.flac
Track gain : -8.60 dB
Peak : 0.996948
CRC32 hash (test run) : 613AF6F7
CRC32 hash : 613AF6F7
CRC32 hash (skip zero) : B01A64C5
AccurateRip v1 signature : 1ACAF8F6
AccurateRip v2 signature : C7286EE0
->Accurately ripped (v2, confidence 3/3)
Statistics
Read error : 0
Jitter error (maybe fixed) : 0
Retry sector count : 0
Damaged sector count : 0
Track 03
Filename : /Volumes/Daiki/Music/What.CD/uploads/Edmar Castaneda - Entre Cuerdas (2009) [FLAC]/03 Jesus De Nazareth.flac
Track gain : -7.47 dB
Peak : 0.996582
CRC32 hash (test run) : 8820D5E4
CRC32 hash : 8820D5E4
CRC32 hash (skip zero) : 2BEE21E4
AccurateRip v1 signature : 31AEE356
AccurateRip v2 signature : D6132C64
->Accurately ripped (v2, confidence 3/3)
Statistics
Read error : 0
Jitter error (maybe fixed) : 0
Retry sector count : 0
Damaged sector count : 0
Track 04
Filename : /Volumes/Daiki/Music/What.CD/uploads/Edmar Castaneda - Entre Cuerdas (2009) [FLAC]/04 Colibri.flac
Track gain : -8.20 dB
Peak : 0.995911
CRC32 hash (test run) : 847A3DCF
CRC32 hash : 847A3DCF
CRC32 hash (skip zero) : BF9296AE
AccurateRip v1 signature : 4A6C957D
AccurateRip v2 signature : EC1C7AF5
->Accurately ripped (v2, confidence 3/3)
Statistics
Read error : 0
Jitter error (maybe fixed) : 0
Retry sector count : 0
Damaged sector count : 0
Track 05
Filename : /Volumes/Daiki/Music/What.CD/uploads/Edmar Castaneda - Entre Cuerdas (2009) [FLAC]/05 Song Of Hope.flac
Pre-gap length : 00:00:13
Track gain : -7.85 dB
Peak : 0.995941
CRC32 hash (test run) : 61F35809
CRC32 hash : 61F35809
CRC32 hash (skip zero) : F5FCBBD8
AccurateRip v1 signature : 737C398F
AccurateRip v2 signature : EF2D99E9
->Accurately ripped (v2, confidence 3/3)
Statistics
Read error : 0
Jitter error (maybe fixed) : 0
Retry sector count : 0
Damaged sector count : 0
Track 06
Filename : /Volumes/Daiki/Music/What.CD/uploads/Edmar Castaneda - Entre Cuerdas (2009) [FLAC]/06 Colombian Dixe.flac
Track gain : -8.17 dB
Peak : 0.996246
CRC32 hash (test run) : 098A0245
CRC32 hash : 098A0245
CRC32 hash (skip zero) : 4DECD116
AccurateRip v1 signature : 5857D016
AccurateRip v2 signature : 219628B3
->Accurately ripped (v2, confidence 3/3)
Statistics
Read error : 0
Jitter error (maybe fixed) : 0
Retry sector count : 0
Damaged sector count : 0
Track 07
Filename : /Volumes/Daiki/Music/What.CD/uploads/Edmar Castaneda - Entre Cuerdas (2009) [FLAC]/07 Canto.flac
Pre-gap length : 00:00:18
Track gain : -8.34 dB
Peak : 0.995758
CRC32 hash (test run) : AD3D5D71
CRC32 hash : AD3D5D71
CRC32 hash (skip zero) : 993FDD57
AccurateRip v1 signature : 181C59D9
AccurateRip v2 signature : 5890A6BD
->Accurately ripped (v2, confidence 3/3)
Statistics
Read error : 0
Jitter error (maybe fixed) : 0
Retry sector count : 0
Damaged sector count : 0
Track 08
Filename : /Volumes/Daiki/Music/What.CD/uploads/Edmar Castaneda - Entre Cuerdas (2009) [FLAC]/08 Looking Forward.flac
Track gain : -7.41 dB
Peak : 0.997437
CRC32 hash (test run) : 5DD55CD3
CRC32 hash : 5DD55CD3
CRC32 hash (skip zero) : 35E77F73
AccurateRip v1 signature : DB532C80
AccurateRip v2 signature : 988164BF
->Accurately ripped (v2, confidence 3/3)
Statistics
Read error : 0
Jitter error (maybe fixed) : 0
Retry sector count : 0
Damaged sector count : 0
Track 09
Filename : /Volumes/Daiki/Music/What.CD/uploads/Edmar Castaneda - Entre Cuerdas (2009) [FLAC]/09 Afro Seis.flac
Pre-gap length : 00:00:30
Track gain : -7.55 dB
Peak : 0.996460
CRC32 hash (test run) : 37A6BF0C
CRC32 hash : 37A6BF0C
CRC32 hash (skip zero) : 2A9144E7
AccurateRip v1 signature : 0C2BDB83
AccurateRip v2 signature : F964DA10
->Accurately ripped (v2, confidence 3/3)
Statistics
Read error : 0
Jitter error (maybe fixed) : 0
Retry sector count : 0
Damaged sector count : 0
No errors occurred
End of status report
-----BEGIN XLD SIGNATURE-----
P3CiqiUo4ReNnYSS1dVqnrgwk2uv_Eh1Hr3gy7OR8ieXysKs14MAhLTfcllmDaUIz5Cw6HOehzazYqhYVY84CvPOwIkaH5F9A4xhmTO
-----END XLD SIGNATURE-----
 
Содержание индексной карты (.CUE)
TITLE "Entre Cuerdas"
PERFORMER "Edmar Castaneda"
REM GENRE "Jazz"
REM DATE "2009"
REM DISCNUMBER 1
REM TOTALDISCS 1
REM DISCID 640DD709
REM REPLAYGAIN_ALBUM_GAIN -8.15 dB
REM REPLAYGAIN_ALBUM_PEAK 0.997437
FILE "01 Sabroson.flac" WAVE
TRACK 01 AUDIO
TITLE "Sabroson"
PERFORMER "Edmar Castaneda"
REM REPLAYGAIN_TRACK_GAIN -8.76 dB
REM REPLAYGAIN_TRACK_PEAK 0.996857
INDEX 01 00:00:00
FILE "02 Entre Cuerdas.flac" WAVE
TRACK 02 AUDIO
TITLE "Entre Cuerdas"
PERFORMER "Edmar Castaneda"
REM REPLAYGAIN_TRACK_GAIN -8.60 dB
REM REPLAYGAIN_TRACK_PEAK 0.996948
INDEX 01 00:00:00
FILE "03 Jesus De Nazareth.flac" WAVE
TRACK 03 AUDIO
TITLE "Jesus De Nazareth"
PERFORMER "Edmar Castaneda"
REM REPLAYGAIN_TRACK_GAIN -7.47 dB
REM REPLAYGAIN_TRACK_PEAK 0.996582
INDEX 01 00:00:00
FILE "04 Colibri.flac" WAVE
TRACK 04 AUDIO
TITLE "Colibri"
PERFORMER "Edmar Castaneda"
REM REPLAYGAIN_TRACK_GAIN -8.20 dB
REM REPLAYGAIN_TRACK_PEAK 0.995911
INDEX 01 00:00:00
TRACK 05 AUDIO
TITLE "Song Of Hope"
PERFORMER "Edmar Castaneda"
REM REPLAYGAIN_TRACK_GAIN -7.85 dB
REM REPLAYGAIN_TRACK_PEAK 0.995941
INDEX 00 06:43:00
FILE "05 Song Of Hope.flac" WAVE
INDEX 01 00:00:00
FILE "06 Colombian Dixe.flac" WAVE
TRACK 06 AUDIO
TITLE "Colombian Dixe"
PERFORMER "Edmar Castaneda"
REM REPLAYGAIN_TRACK_GAIN -8.17 dB
REM REPLAYGAIN_TRACK_PEAK 0.996246
INDEX 01 00:00:00
TRACK 07 AUDIO
TITLE "Canto"
PERFORMER "Edmar Castaneda"
REM REPLAYGAIN_TRACK_GAIN -8.34 dB
REM REPLAYGAIN_TRACK_PEAK 0.995758
INDEX 00 06:05:55
FILE "07 Canto.flac" WAVE
INDEX 01 00:00:00
FILE "08 Looking Forward.flac" WAVE
TRACK 08 AUDIO
TITLE "Looking Forward"
PERFORMER "Edmar Castaneda"
REM REPLAYGAIN_TRACK_GAIN -7.41 dB
REM REPLAYGAIN_TRACK_PEAK 0.997437
INDEX 01 00:00:00
TRACK 09 AUDIO
TITLE "Afro Seis"
PERFORMER "Edmar Castaneda"
REM REPLAYGAIN_TRACK_GAIN -7.55 dB
REM REPLAYGAIN_TRACK_PEAK 0.996460
INDEX 00 07:38:35
FILE "09 Afro Seis.flac" WAVE
INDEX 01 00:00:00
 
Об исполнителе | About Artist
Edmar Castañeda (born 1978 in Bogotá, Colombia) is a Colombian harpist. He performs his own compositions as well as tapping into native Music of Colombia, Music of Venezuela; Joropo and Music of Argentina, Zamba. He tours regularly as the leader of the Edmar Castañeda Trio, together with David Silliman on drums/percussion and Marshall Gilkes on trombone. He is also a band member for the Andrea Tierra Quartet whose members are Andrea Tierra on vocals, Sam Sadigursky on flute/clarinet/saxophone, and David Silliman.
Castañeda is the son of Colombian harp player, composer, singer, teacher Pavelid Castañeda.
He has performed with Paquito D'Rivera, Wynton Marsalis, John Scofield, Joe Locke, JLCO, John Patitucci, Giovanni Hidalgo, Lila Downs, Janis Siegel, Chico O'Farrill Afro-Cuban jazz big band, The United Nations Orchestra, Simón Diaz, Samuel Torres among other renowned musicians.
In 2006 he released his first solo album Cuarto de Colores. Entre Cuerdas followed in June 2009. His latest album Double Portion was released in March 2012.
 
Об альбоме | About Album
On Entre Cuerdas, Castaneda employs a trio of unlikely parts: harp, trombone and percussion, and approaches his art with the heart and raw energy of a delta blues player combined with the unfettered passion and instrumental acumen of a flamenco guitarist. The music he creates is not of the cerebral sort but rather a mixture of gut and soul emotion and unfettered spiritual joy, aided and abetted by a huge technical proficiency.
The set features guest appearances by guitarist John Scofield on the opener, "Sabroson," and vibraphonist Joe Locke on "Colbri" and "Song of Hope." Scofield adds a bluesy grit to Castaneda's passionate world music attack; and Locke, a jazz star finally getting some well-deserved recognition, slips a cool sustain under the harpist's fiery emotion. The smooth integration of the guest slots into the ensemble interplay is one key to the success of this project. There's no grandstanding, no pyrotechnic look-at-me soloing boasts.
Spirituality is a major component in Castaneda's approach. "Jesus de Nazareth" has a dreamy, deliberate reverence; and "Song of Hope" brims with a searching optimism.
The harp and trombone seem odd band fellows, but Gilkes' suppleness and relative restraint matches up nicely with Castaneda's exuberance and intensity; though he does push the limits of his restraint with some 'bone boldness on "Canto," a tune that features a rousing vocal by Andrea Tierra.
Harpist Edmar Castaneda proves a passionate innovator on Entre Cuerda. The set is a stellar outing, evidence that jazz, in skillful, youthful hands, is a vibrant, forward-moving art form.
 
Состав | Artists
Harp, Producer, Composed By – Edmar Castaneda
Drums, Percussion – Dave Silliman
Trombone – Marshall Gilkes
Guitar – John Scofield (1)
Cajón – Samuel Torres (5)
Vibraphone – Joe Locke (4, 5)
Lyrics By, Vocals – Andrea Tierra (7)
Recorded at Soundworks Recording Studio LLC
Mixed at KAMPO Studios New York
Mastered at DB Plus, New York
Эдмар Кастанеда (род. 31 марта 1978 г. в Боготе, столице Колумбии) – один из лучших джазовых арфистов современности, в музыке которого роскошно переплетаются различные направления. Кастанеда создал новый музыкальный стиль, объединяющий иберийскую музыку XVIII века, вальс, танго, фламенко и традиционные колумбийские, венесуэльские, аргентинские, бразильские, африканские гармонии и ритмы. После переезда в США в 1994 году Эдмар буквально покорил Нью-Йорк и мировую сцену виртуозной и оригинальной игрой на арфе (Кастанеда играет на народной колумбийской арфе – el arpa llanera - что означает «арфа с равнин», на которой в Колумбии играют только мужчины), где джаз и этника сосуществовали на равных. Критики были ошеломлены возможностями инструмента, так как арфу не относили к традиционным джазовым инструментам. Полнота звука, быстрая смена аккордов, многогранный талант и неотразимое обаяние делают Кастанеду уникальным музыкантом, завоёвывающим сердца слушателей во всем мире.
19:41
379
Нет комментариев. Ваш будет первым!