Поиск

(Jazz) Gianluigi Trovesi - Around Small Fairy Tales - 1998, FLAC (image + .cue), lossless

(Jazz) Gianluigi Trovesi - Around Small Fairy Tales - 1998, FLAC (image + .cue), lossless
Треклист:
Gianluigi Trovesi - Around Small Fairy Tales
Страна: Italy
Жанр: Jazz
Год выпуска: 1998
Формат: FLAC (image + .cue)
Битрейт аудио: lossless
Продолжительность: 58:37
Трэклист:
1 Sia Maledetta l'Acqua 6:24
2 Le Maschere: Pierrot/Pierrot (Prologue)/Puppet Theatre/Pierrot [Epilogo] 6:22
3 Dance for a King 7:22
4 La Pazzia 7:12
5 C'Era Una Strega, C'Era Una Fata 4:52
6 Verano 5:32
7 Illimani 7:06
8 Ambulat Hic Armatus Homo/Introito/Cantus I/Armatus Homo/Cantus ... 13:29
Доп. информация:
1998 Soul Note
 
EAC Report
Exact Audio Copy V0.99 prebeta 4 from 23. January 2008
EAC extraction logfile from 11. February 2008, 21:11
Gianluigi Trovesi / Around Small Fairy Tales
Used drive : MATSHITADVD-RAM UJ-840S Adapter: 1 ID: 0
Read mode : Secure
Utilize accurate stream : Yes
Defeat audio cache : No
Make use of C2 pointers : Yes
Read offset correction : 102
Overread into Lead-In and Lead-Out : No
Fill up missing offset samples with silence : Yes
Delete leading and trailing silent blocks : No
Null samples used in CRC calculations : No
Used interface : Installed external ASPI interface
Used output format : User Defined Encoder
Selected bitrate : 1024 kBit/s
Quality : High
Add ID3 tag : No
Command line compressor : C:\Program Files\Exact Audio Copy\FLAC\FLAC.EXE
Additional command line options : -6 -V -T "ARTIST=%a" -T "TITLE=%t" -T "ALBUM=%g" -T "DATE=%y" -T "TRACKNUMBER=%n" -T "GENRE=%m" -T "COMMENT=%e" %s -o %d
TOC of the extracted CD
Track | Start | Length | Start sector | End sector
---------------------------------------------------------
1 | 0:00.00 | 6:26.52 | 0 | 29001
2 | 6:26.52 | 6:22.12 | 29002 | 57663
3 | 12:48.64 | 7:25.68 | 57664 | 91106
4 | 20:14.57 | 7:14.25 | 91107 | 123681
5 | 27:29.07 | 4:55.20 | 123682 | 145826
6 | 32:24.27 | 5:34.00 | 145827 | 170876
7 | 37:58.27 | 7:08.58 | 170877 | 203034
8 | 45:07.10 | 13:29.35 | 203035 | 263744
Range status and errors
Selected range
Filename C:\Documents and Settings\Igor\My Documents\Upload\Gianluigi Trovesi - Around Small Fairy Tales.wav
Peak level 100.0 %
Range quality 100.0 %
Copy CRC E6A3144B
Copy OK
No errors occurred
AccurateRip summary
Track 1 not present in database
Track 2 not present in database
Track 3 not present in database
Track 4 not present in database
Track 5 not present in database
Track 6 not present in database
Track 7 not present in database
Track 8 not present in database
None of the tracks are present in the AccurateRip database
End of status report
Приватный:
Нет (DHT включён)
Размер:
334.87 Мб (351,135,437 байт) » файлов: 5
Участники:
0 раздают, 0 качают (0 участников всего)
Внешние участники:
3 раздают, 1 качают (4 участников всего) [ Обновить ]
Есть вопросы - пишите личное сообщение пользователю M0p94ok.
23:20
57
Нет комментариев. Ваш будет первым!