Поиск

(Avant-Garde) Steve Lacy Three-N.Y.Capers & Quirks(hatOLOGY) - 2000, APE (image + .cue), lossless

Треклист:
Steve Lacy Three-N.Y.Capers & Quirks(hatOLOGY)1979
Страна: Switzerland
Жанр: Avant-Garde
Год выпуска: 2000
Формат: APE (image + .cue)
Битрейт аудио: lossless
Продолжительность: 55:55
Трэклист:
1 Quirks Lacy 9:25
2 Bud's Brother Lacy 16:57
3 Capers Lacy 9:15
4 We Don't Lacy 6:27
5 Kitty Malone Lacy 13:50
Доп. информация: Сканы в наличии.
 
скрытый текст
Exact Audio Copy V0.99 prebeta 3 from 28. July 2007
Отчёт EAC об извлечении, выполненном 8. февраля 2008, 18:27
Steve Lacy / N.Y. Capers & Quirks
Дисковод: TEAC CD-W540E Adapter: 0 ID: 1
Режим чтения : Достоверность
Использование точного потока : Да
Отключение кэша аудио : Да
Использование указателей C2 : Нет
Коррекция смещения при чтении : 686
Способность читать области Lead-in и Lead-out : Нет
Заполнение пропущенных сэмплов тишиной : Да
Удаление блоков с тишиной в начале и конце : Нет
При вычислениях CRC использовались нулевые сэмплы : Да
Интерфейс : Установленный внешний ASPI-интерфейс
Выходной формат : Monkey's Audio Lossless Encoder v3.99 DLL
Формат сэмплов : High Lossless Compression
TOC извлечённого CD
Трек | Старт | Длительность | Начальный сектор | Конечный сектор
---------------------------------------------------------------------
1 | 0:00.00 | 9:25.62 | 0 | 42436
2 | 9:25.62 | 16:57.00 | 42437 | 118711
3 | 26:22.62 | 9:15.00 | 118712 | 160336
4 | 35:37.62 | 6:27.25 | 160337 | 189386
5 | 42:05.12 | 13:50.63 | 189387 | 251699
Характеристики диапазона извлечения и сообщения об ошибках
Выбранный диапазон
Имя файла J:\Downloads\Steve Lacy\Steve Lacy Three-N.Y.Capers & Quirks(2000)(hatOLOGY)\Steve Lacy - N.Y. Capers & Quirks.ape
Пиковый уровень 92.0 %
Качество диапазона 99.9 %
CRC теста D6885442
CRC копии D6885442
Копирование... OK
Ошибок не произошло
Конец отчёта
Приватный:
Нет (DHT включён)
Размер:
326.29 Мб (342,136,422 байт) » файлов: 7
Участники:
0 раздают, 0 качают (0 участников всего)
Внешние участники:
2 раздают, 1 качают (3 участников всего) [ Обновить ]
Есть вопросы - пишите личное сообщение пользователю M0p94ok.
23:19
55
Нет комментариев. Ваш будет первым!