Поиск

(jazz) George Adams / Don Pullen Quartet - 3 albums - 1980, 1981, 1985, FLAC (image+.cue), lossless

(jazz) George Adams / Don Pullen Quartet - 3 albums - 1980, 1981, 1985, FLAC (image+.cue), lossless
Треклист:
George Adams / Don Pullen Quartet - 3 albums
Жанр: jazz
Год выпуска диска: 1980, 1981, 1985
Производитель диска: Nitherlands, USA
Аудио кодек: FLAC
Тип рипа: image+.cue
Битрейт аудио: lossless
Продолжительность: 39.52 + 41.04 + 50.22
Трэклист:
 
Earth Beams - 1980, Timeless Records
1. Earth Beams
2. Magnetic Love Field
3. Dionysus
4. Saturday Nite In The Cosmos
5. More Flowers
6. Sophisticated Alice
George Adams - tenor sax & flute
Don Pullen - piano
Dannie Richmond - drums
Cameron Brown - bass
 
 
Life Line - 1981, Timeless Records
1. The Great Escape, Or Run John Henry Run (4:36)
2. Seriously Speaking (7:59)
3. Soft Seas (7:15)
4. Nature´s Children (9:42)
5. Protection (1:35)
6. Newcomer; Seven Years Later (9:30)
George Adams - tenor sax, flute, vocals
Don Pullen - piano
Dannie Richmond - drums
Cameron Brown - bass
 
 
Live In Montmartre - 1985, Timeless Records
1. I.J.
2. Flame Games
3. Well, I Guess We'll Never Know
4. Forever Lovers
5. Song Everlasting
George Adams - tenor sax
Don Pullen - piano
Dannie Richmond - drums
Cameron Brown - bass
+
John Scotfield - guitar
Доп. информация:
 
 
eac log for Earth Beams
Exact Audio Copy V0.99 prebeta 4 from 23. January 2008
Отчёт EAC об извлечении, выполненном 12. октября 2008, 18:22
George Adams/Don Pullen Quartet / Earth Beams
Дисковод: Optiarc DVD RW AD-7170A Adapter: 0 ID: 1
Режим чтения : Достоверность
Использование точного потока : Да
Отключение кэша аудио : Да
Использование указателей C2 : Нет
Коррекция смещения при чтении : 48
Способность читать области Lead-in и Lead-out : Нет
Заполнение пропущенных сэмплов тишиной : Да
Удаление блоков с тишиной в начале и конце : Нет
При вычислениях CRC использовались нулевые сэмплы : Да
Интерфейс : Встроенный Win32-интерфейс для Win NT/2000
Выходной формат : Пользовательский кодировщик
Выбранный битрейт : 768 kBit/s
Качество : Высокий
Добавление ID3-тэга : Нет
Утилита сжатия : D:\Program Files\Exact Audio Copy\FLAC\FLAC.EXE
Дополнительные параметры : -6 -V -T "ARTIST=%a" -T "TITLE=%t" -T "ALBUM=%g" -T "DATE=%y" -T "TRACKNUMBER=%n" -T "GENRE=%m" -T "COMMENT=%e" %s -o %d
TOC извлечённого CD
Трек | Старт | Длительность | Начальный сектор | Конечный сектор
---------------------------------------------------------------------
1 | 0:00.00 | 7:58.00 | 0 | 35849
2 | 7:58.00 | 4:38.00 | 35850 | 56699
3 | 12:36.00 | 7:33.02 | 56700 | 90676
4 | 20:09.02 | 6:47.00 | 90677 | 121201
5 | 26:56.02 | 5:39.00 | 121202 | 146626
6 | 32:35.02 | 7:16.43 | 146627 | 179369
Характеристики диапазона извлечения и сообщения об ошибках
Выбранный диапазон
Имя файла D:\EAC\George Adams Don Pullen Quartet - Earth Beams.wav
Пиковый уровень 100.0 %
Качество диапазона 100.0 %
CRC копии 308A364C
Копирование... OK
Ошибок не произошло
AccurateRip: сводка
Трек 1 нет в базе данных
Трек 2 нет в базе данных
Трек 3 нет в базе данных
Трек 4 нет в базе данных
Трек 5 нет в базе данных
Трек 6 нет в базе данных
Ни одного трека нет в базе AccurateRip
Конец отчёта
 
 
eac log for Life Line
Exact Audio Copy V0.99 prebeta 4 from 23. January 2008
Отчёт EAC об извлечении, выполненном 12. октября 2008, 19:19
George Adams & Don Pullen / Life Line
Дисковод: Optiarc DVD RW AD-7170A Adapter: 0 ID: 1
Режим чтения : Достоверность
Использование точного потока : Да
Отключение кэша аудио : Да
Использование указателей C2 : Нет
Коррекция смещения при чтении : 48
Способность читать области Lead-in и Lead-out : Нет
Заполнение пропущенных сэмплов тишиной : Да
Удаление блоков с тишиной в начале и конце : Нет
При вычислениях CRC использовались нулевые сэмплы : Да
Интерфейс : Встроенный Win32-интерфейс для Win NT/2000
Выходной формат : Пользовательский кодировщик
Выбранный битрейт : 768 kBit/s
Качество : Высокий
Добавление ID3-тэга : Нет
Утилита сжатия : D:\Program Files\Exact Audio Copy\FLAC\FLAC.EXE
Дополнительные параметры : -6 -V -T "ARTIST=%a" -T "TITLE=%t" -T "ALBUM=%g" -T "DATE=%y" -T "TRACKNUMBER=%n" -T "GENRE=%m" -T "COMMENT=%e" %s -o %d
TOC извлечённого CD
Трек | Старт | Длительность | Начальный сектор | Конечный сектор
---------------------------------------------------------------------
1 | 0:00.00 | 4:42.52 | 0 | 21201
2 | 4:42.52 | 8:02.33 | 21202 | 57384
3 | 12:45.10 | 7:20.17 | 57385 | 90401
4 | 20:05.27 | 9:48.15 | 90402 | 134516
5 | 29:53.42 | 1:35.50 | 134517 | 141691
6 | 31:29.17 | 9:34.65 | 141692 | 184806
Характеристики диапазона извлечения и сообщения об ошибках
Выбранный диапазон
Имя файла D:\EAC\George Adams & Don Pullen - Life Line.wav
Пиковый уровень 100.0 %
Качество диапазона 99.9 %
CRC копии 09FE9D5B
Копирование... OK
Ошибок не произошло
AccurateRip: сводка
Трек 1 нет в базе данных
Трек 2 нет в базе данных
Трек 3 нет в базе данных
Трек 4 нет в базе данных
Трек 5 нет в базе данных
Трек 6 нет в базе данных
Ни одного трека нет в базе AccurateRip
Конец отчёта
 
 
eac log for Live In Montmartre
Exact Audio Copy V0.99 prebeta 4 from 23. January 2008
Отчёт EAC об извлечении, выполненном 12. октября 2008, 18:53
George Adams & Don Pullen Quartet / Live At Montmartre
Дисковод: Optiarc DVD RW AD-7170A Adapter: 0 ID: 1
Режим чтения : Достоверность
Использование точного потока : Да
Отключение кэша аудио : Да
Использование указателей C2 : Нет
Коррекция смещения при чтении : 48
Способность читать области Lead-in и Lead-out : Нет
Заполнение пропущенных сэмплов тишиной : Да
Удаление блоков с тишиной в начале и конце : Нет
При вычислениях CRC использовались нулевые сэмплы : Да
Интерфейс : Встроенный Win32-интерфейс для Win NT/2000
Выходной формат : Пользовательский кодировщик
Выбранный битрейт : 768 kBit/s
Качество : Высокий
Добавление ID3-тэга : Нет
Утилита сжатия : D:\Program Files\Exact Audio Copy\FLAC\FLAC.EXE
Дополнительные параметры : -6 -V -T "ARTIST=%a" -T "TITLE=%t" -T "ALBUM=%g" -T "DATE=%y" -T "TRACKNUMBER=%n" -T "GENRE=%m" -T "COMMENT=%e" %s -o %d
TOC извлечённого CD
Трек | Старт | Длительность | Начальный сектор | Конечный сектор
---------------------------------------------------------------------
1 | 0:00.00 | 8:07.00 | 0 | 36524
2 | 8:07.00 | 11:31.00 | 36525 | 88349
3 | 19:38.00 | 8:27.00 | 88350 | 126374
4 | 28:05.00 | 10:54.00 | 126375 | 175424
5 | 38:59.00 | 11:22.52 | 175425 | 226626
Характеристики диапазона извлечения и сообщения об ошибках
Выбранный диапазон
Имя файла D:\EAC\George Adams & Don Pullen Quartet - Live At Montmartre.wav
Пиковый уровень 33.3 %
Качество диапазона 99.9 %
CRC копии 839A6214
Копирование... OK
Ошибок не произошло
AccurateRip: сводка
Трек 1 нет в базе данных
Трек 2 нет в базе данных
Трек 3 нет в базе данных
Трек 4 нет в базе данных
Трек 5 нет в базе данных
Ни одного трека нет в базе AccurateRip
Конец отчёта
Download available for power users only.
07:36
358
Нет комментариев. Ваш будет первым!