Поиск

(Jazz Fusion / World Fusion) Kostas Theodorou - Nostos (Κώστας Θεοδώρου - Νόστος) - 1999, FLAC (tracks+.cue), lossless

Треклист:
Κώστας Θεοδώρου - Νόστος (Kostas Theodorou - Nostos)
Жанр: Jazz Fusion / World Fusion
Страна-производитель диска: Greece
Год издания: 1999
Издатель (лейбл): Lyra
Номер по каталогу: CD 0667
Страна: Greece
Аудиокодек: FLAC (*.flac)
Тип рипа: tracks+.cue
Битрейт аудио: lossless
Продолжительность: 49:46
Источник (релизер): what.cd (abantos)
Наличие сканов в содержимом раздачи: да
Треклист:
A' μερος (A' part)
1. Εισαγωγή (Introduction)
2. Αντάμωμα (Meeting)
3. Ενδεκάπαλμος (Endekapalmos)
4. Κυκλικός Χορός (Circular Dance)
5. Αποχαιρετισμός (Farewell)
B' μερος (B' part)
6. Νόστος (Nostos)
7. Ταξίδι (The Voyage)
8. Cap De Creus (Ακρωτήρι Του Σταυρού)
9. Φωτεινές Προθέσεις (Illumined Concepruals)
 
Лог создания рипа
Exact Audio Copy V0.99 prebeta 4 from 23. January 2008
EAC extraction logfile from 26. June 2010, 23:35
Kostas Theodorou / Nostos
Used drive : Optiarc DVD RW AD-7200A Adapter: 3 ID: 0
Read mode : Secure
Utilize accurate stream : Yes
Defeat audio cache : Yes
Make use of C2 pointers : No
Read offset correction : 48
Overread into Lead-In and Lead-Out : No
Fill up missing offset samples with silence : Yes
Delete leading and trailing silent blocks : No
Null samples used in CRC calculations : Yes
Used interface : Installed external ASPI interface
Gap handling : Appended to previous track
Used output format : User Defined Encoder
Selected bitrate : 256 kBit/s
Quality : High
Add ID3 tag : No
Command line compressor : C:\Program Files\Exact Audio Copy\Flac\flac.exe
Additional command line options : -8 -V -T "ARTIST=%a" -T "TITLE=%t" -T "ALBUM=%g" -T "DATE=%y" -T "TRACKNUMBER=%n" -T "GENRE=%m" -T "COMMENT=EAC FLAC -8" %s
TOC of the extracted CD
Track | Start | Length | Start sector | End sector
---------------------------------------------------------
1 | 0:00.00 | 1:10.42 | 0 | 5291
2 | 1:10.42 | 5:19.10 | 5292 | 29226
3 | 6:29.52 | 6:16.13 | 29227 | 57439
4 | 12:45.65 | 5:28.47 | 57440 | 82086
5 | 18:14.37 | 5:02.33 | 82087 | 104769
6 | 23:16.70 | 8:23.22 | 104770 | 142516
7 | 31:40.17 | 8:43.13 | 142517 | 181754
8 | 40:23.30 | 5:47.55 | 181755 | 207834
9 | 46:11.10 | 3:34.50 | 207835 | 223934
Track 1
Filename E:\Rips\01 - Introduction.wav
Pre-gap length 0:00:02.00
Peak level 79.9 %
Track quality 100.0 %
Test CRC 81E83301
Copy CRC 81E83301
Track not present in AccurateRip database
Copy OK
Track 2
Filename E:\Rips\02 - Meeting.wav
Peak level 98.3 %
Track quality 99.9 %
Test CRC AB9442B3
Copy CRC AB9442B3
Track not present in AccurateRip database
Copy OK
Track 3
Filename E:\Rips\03 - Endekapalmos.wav
Pre-gap length 0:00:02.56
Peak level 98.7 %
Track quality 100.0 %
Test CRC F444DB6B
Copy CRC F444DB6B
Track not present in AccurateRip database
Copy OK
Track 4
Filename E:\Rips\04 - Circular Dance.wav
Pre-gap length 0:00:02.57
Peak level 98.5 %
Track quality 100.0 %
Test CRC 0D58C1CA
Copy CRC 0D58C1CA
Track not present in AccurateRip database
Copy OK
Track 5
Filename E:\Rips\05 - Farewell.wav
Pre-gap length 0:00:02.56
Peak level 98.1 %
Track quality 100.0 %
Test CRC 8B870EE8
Copy CRC 8B870EE8
Track not present in AccurateRip database
Copy OK
Track 6
Filename E:\Rips\06 - Nostos.wav
Pre-gap length 0:00:02.06
Peak level 98.1 %
Track quality 100.0 %
Test CRC 0094C81D
Copy CRC 0094C81D
Track not present in AccurateRip database
Copy OK
Track 7
Filename E:\Rips\07 - The Voyage.wav
Pre-gap length 0:00:02.56
Peak level 98.7 %
Track quality 100.0 %
Test CRC C12CD26B
Copy CRC C12CD26B
Track not present in AccurateRip database
Copy OK
Track 8
Filename E:\Rips\08 - Cap de Creus.wav
Pre-gap length 0:00:02.53
Peak level 98.0 %
Track quality 100.0 %
Test CRC BECFDAA4
Copy CRC BECFDAA4
Track not present in AccurateRip database
Copy OK
Track 9
Filename E:\Rips\09 - Illumined Conceptuals.wav
Peak level 97.8 %
Track quality 100.0 %
Test CRC 48C085D9
Copy CRC 48C085D9
Track not present in AccurateRip database
Copy OK
None of the tracks are present in the AccurateRip database
No errors occurred
End of status report
 
Содержание индексной карты (.CUE)
REM GENRE "Jazz Fusion / World Fusion"
REM DATE 1999
REM DISCID 7D0BA909
REM COMMENT "ExactAudioCopy v0.99pb4"
PERFORMER "Kostas Theodorou"
TITLE "Nostos"
FILE "01 - Introduction.wav" WAVE
TRACK 01 AUDIO
TITLE "Introduction"
PERFORMER "Kostas Theodorou"
INDEX 01 00:00:00
FILE "02 - Meeting.wav" WAVE
TRACK 02 AUDIO
TITLE "Meeting"
PERFORMER "Kostas Theodorou"
INDEX 01 00:00:00
TRACK 03 AUDIO
TITLE "Endekapalmos"
PERFORMER "Kostas Theodorou"
INDEX 00 05:16:43
FILE "03 - Endekapalmos.wav" WAVE
INDEX 01 00:00:00
TRACK 04 AUDIO
TITLE "Circular Dance"
PERFORMER "Kostas Theodorou"
INDEX 00 06:13:45
FILE "04 - Circular Dance.wav" WAVE
INDEX 01 00:00:00
TRACK 05 AUDIO
TITLE "Farewell"
PERFORMER "Kostas Theodorou"
INDEX 00 05:26:05
FILE "05 - Farewell.wav" WAVE
INDEX 01 00:00:00
TRACK 06 AUDIO
TITLE "Nostos"
PERFORMER "Kostas Theodorou"
INDEX 00 05:00:28
FILE "06 - Nostos.wav" WAVE
INDEX 01 00:00:00
TRACK 07 AUDIO
TITLE "The Voyage"
PERFORMER "Kostas Theodorou"
INDEX 00 08:20:55
FILE "07 - The Voyage.wav" WAVE
INDEX 01 00:00:00
TRACK 08 AUDIO
TITLE "Cap De Creus"
PERFORMER "Kostas Theodorou"
INDEX 00 08:40:48
FILE "08 - Cap De Creus.wav" WAVE
INDEX 01 00:00:00
FILE "09 - Illumined Conceptuals.wav" WAVE
TRACK 09 AUDIO
TITLE "Illumined Conceptuals"
PERFORMER "Kostas Theodorou"
INDEX 01 00:00:00
 
Скриншот спектра частот
Доп. информация: Φωτεινές Προθέσεις Νόστος Αποχαιρετισμός Εισαγωγή ~ Αντάμωμα
 
Об исполнителе (группе)

Kostas Theodorou has been an active member of the Greek music scene since 1983, when he moved to Thessaloniki from his home village in Northern Greece (Edessa), where he had abandoned school at the early age of 16 in order to devote his life to music. He taught himself guitar, then electric bass and finally decided to focus on the double bass in 1989. For years he travelled throughout Europe in a mobile home, learning to play different musical instruments and styles. Since he returned to Greece, he has worked as a musician (double bass and percussion) with many composers and performers. He has arranged the music for album productions of several well-known Greek artists. He has also composed music for the theatre and cinema, along with compositions for various ensembles with which he has presented his wotk in Greece and abroad. His collaborations consist of artists like: Savina Yannatou, Mikis Theodorakis, Takis Farazis, Michalis Siganidis, Theodosii Spassov, Arto Tuncboyaciyan, Ara Dinkjian, Danny Hayes etc.
 
Об альбоме (сборнике)

Nostos is a musical unity in two parts. The first one is characterized by the geographical latitude of the Balkans and the Mediterranean, with emphasis on the themes and soundscapes of tradition. The second part containing many improvisations tries to open its horizons to every direction, returning always to the sounds and rhythms of Greek tradition.
 
Состав
Τάκης Φαραζής (Takis Farazis) — piano, accordion, voice
Σωκράτης Σινόπουλος (Socrates Sinopoulos) — lyra
Μελίνα Κανά (Melina Kana) — voice
Danny Hayes — trumpet
Δήμος Δημητριάδης (Dimos Dimitriades) — flute, saxophones
Νίκος «Κόλιας» Τάντσης (Nikos «Kolias» Tantsis) — trombone
Δημήτρης Χρηστιδης (Dimitris Hristidis) — trumpet
Δημήτρης Χαλκιάς (Dimitris Halkias) — clarinet
Μάνος Αχαλινωτοπουλος (Manos Ahalinotopoulos) — clarinet
Sergei Satskof — trombone
Τάκης Κανέλλος (Takis Kanellos) — drums
Νίκος Σιδηροκαστρίτης (Nikos Sidirokastritis) — drums
Παντελής Μπενετάτος (Pantelis Benetatos) — piano
Μαρία Θωίδου (Maria Thoidou) — voice
Μιχάλης Σιγανίδης (Michalis Siganidis) — double bass
Κώστας Θεοδώρου (Kostas Theodorou) — double bass, lute, buzuki, guitar, percussion, voice
03:16
330
Нет комментариев. Ваш будет первым!