Поиск

(Jazz Fusion, Tango Nuevo) Fernando Samalea - Primicia - 2009 [Mor Discos], FLAC (image+.cue), lossless

(Jazz Fusion, Tango Nuevo) Fernando Samalea - Primicia - 2009 [Mor Discos], FLAC (image+.cue), lossless
Треклист:
Fernando Samalea - 2009 - Primicia [FLAC] [Mor Discos]
Жанр: Jazz Fusion, Tango Nuevo | Год издания: 2009 | Страна: Buenos Aires, ArgentinaАудиокодек: FLAC (*.flac) | Тип рипа: image+.cue | Битрейт аудио: lossless | Продолжительность: 00:36:30Страна производитель диска: Argentina | Издатель: Mor DiscosНаличие сканов в содержимом раздачи: нет | Источник (релизер): cabezademoog::moebius
Треклист:
1. Neurocósmico 4:17
2. Prima donna 4:26
3. Grecorromano 5:16
4. Adonis 4:15
5. Magicómico 4:48
6. Frizzante 3:32
7. Vestales 4:16
8. Psicomonárquico 5:36
 
Лог создания рипа
Exact Audio Copy V0.99 prebeta 4 from 23. January 2008
EAC extraction logfile from 24. September 2012, 11:25
Fernando Samalea / Primicia
Used drive : HL-DT-STDVDRAM GH20NS15 Adapter: 1 ID: 0
Read mode : Secure
Utilize accurate stream : Yes
Defeat audio cache : Yes
Make use of C2 pointers : No
Read offset correction : 667
Overread into Lead-In and Lead-Out : No
Fill up missing offset samples with silence : Yes
Delete leading and trailing silent blocks : No
Null samples used in CRC calculations : Yes
Used interface : Native Win32 interface for Win NT & 2000
Used output format : Internal WAV Routines
Sample format : 44.100 Hz; 16 Bit; Stereo
TOC of the extracted CD
Track | Start | Length | Start sector | End sector
---------------------------------------------------------
1 | 0:00.00 | 4:17.19 | 0 | 19293
2 | 4:17.19 | 4:26.62 | 19294 | 39305
3 | 8:44.06 | 5:16.50 | 39306 | 63055
4 | 14:00.56 | 4:15.08 | 63056 | 82188
5 | 18:15.64 | 4:48.55 | 82189 | 103843
6 | 23:04.44 | 3:32.64 | 103844 | 119807
7 | 26:37.33 | 4:16.71 | 119808 | 139078
8 | 30:54.29 | 5:36.19 | 139079 | 164297
Range status and errors
Selected range
Filename D:\Mis documentos\Download\- Rpeados\Fernando Samalea - Primicia\Fernando Samalea - Primicia.wav
Peak level 100.0 %
Range quality 99.9 %
Copy CRC BA9A94D1
Copy OK
No errors occurred
AccurateRip summary
Track 1 not present in database
Track 2 not present in database
Track 3 not present in database
Track 4 not present in database
Track 5 not present in database
Track 6 not present in database
Track 7 not present in database
Track 8 not present in database
None of the tracks are present in the AccurateRip database
End of status report
 
Содержание индексной карты (.CUE)
REM GENRE Instrumental
REM DATE 2009
REM DISCID 7C088E08
REM COMMENT "ExactAudioCopy v0.99pb4"
PERFORMER "Fernando Samalea"
TITLE "Primicia"
FILE "Fernando Samalea - Primicia.flac" WAVE
TRACK 01 AUDIO
TITLE "Neurocósmico"
PERFORMER "Fernando Samalea"
INDEX 01 00:00:00
TRACK 02 AUDIO
TITLE "Prima Donna"
PERFORMER "Fernando Samalea"
INDEX 00 04:14:19
INDEX 01 04:17:19
TRACK 03 AUDIO
TITLE "Grecorromano"
PERFORMER "Fernando Samalea"
INDEX 00 08:41:06
INDEX 01 08:44:06
TRACK 04 AUDIO
TITLE "Adonis"
PERFORMER "Fernando Samalea"
INDEX 00 13:57:56
INDEX 01 14:00:56
TRACK 05 AUDIO
TITLE "Magicómico"
PERFORMER "Fernando Samalea"
INDEX 00 18:12:64
INDEX 01 18:15:64
TRACK 06 AUDIO
TITLE "Frizzante"
PERFORMER "Fernando Samalea"
INDEX 00 23:01:44
INDEX 01 23:04:44
TRACK 07 AUDIO
TITLE "Vestales"
PERFORMER "Fernando Samalea"
INDEX 00 26:34:33
INDEX 01 26:37:33
TRACK 08 AUDIO
TITLE "Psicomonarquico"
PERFORMER "Fernando Samalea"
INDEX 00 30:51:29
INDEX 01 30:54:29
 
Состав

Fernando Samalea...........accordion, vibraphone, timpani, drums, glockenspiel, tubular bells
Toni Levin.................bass guitar
Matias Mango...............piano, keyboards
Alejandro Terán............viola, clarinet
Fernando Kabusacki.........guitars
Miguel Angel Tallarita.....trumpet
Gustavo Cerati.............electric guitar
Bird Canzani...............percussion
Paul Dourge................low
12:18
246
Нет комментариев. Ваш будет первым!