Поиск

(Flamenco Jazz, World Fusion, ACT Music) Vince Mendoza and the Metropole Orchestra - El Viento: The García Lorca Project - 2009, FLAC (tracks+.cue), lossless

(Flamenco Jazz, World Fusion, ACT Music) Vince Mendoza and the Metropole Orchestra - El Viento: The García Lorca Project - 2009, FLAC (tracks+.cue), lossless
Издатель (лейбл):
Треклист:
Vince Mendoza and the Metropole Orchestra / El Viento: The García Lorca Project
Жанр: Flamenco Jazz, World Fusion, ACT Music
Страна-производитель диска: Germany
Год издания: 2009
Издатель (лейбл): ACT Music
Номер по каталогу: ACT 9490-2
Аудиокодек: FLAC (*.flac)
Тип рипа: tracks+.cue
Битрейт аудио: lossless
Продолжительность: 1:10:44
Источник (релизер): Max Monteiro
Наличие сканов в содержимом раздачи: нет
Треклист:
01. La Canción del Mariquita (Ricardo Pachón, arr. Vince Mendoza) 4:17
02. Historietas del Viento I: El Viento (comp. & arr. Niko Langenhuijsen) 4:41
03. Historietas del Viento II: Viento Estancado (comp. & arr. Niko Langenhuijsen) 5:19
04. Historietas del Viento III: La Brisa (comp. & arr. Niko Langenhuijsen) 6:06
05. La Tarara (trad., arr. Vince Mendoza) 8:37
06. De Los Cuatros Muleros (trad., arr. Joan Albert Amargós) 6:24
07. Sevillanas del Siglo XVIII (trad., arr. Vince Mendoza) 3:45
08. La Nana del Caballo Grande (Ricardo Pachón, arr. Niko Langenhuijsen) 6:11
09. Los Peregrinitos (trad., arr. Joan Albert Amargós) 3:34
10. Ángeles Negros (José Ortega Heredia, arr. Vince Mendoza) 5:28
11. Los Mozos de Monleón (trad., arr. Joan Albert Amargós) 9:22
12. La Leyenda del Tiempo (Ricardo Pachón, arr. Niko Langenhuijsen) 7:00
Recorded between 19-22 February 2008 at MCO Studios 1 & 3 and Wisseloord Studios, Hilversum, Netherlands.
The Metropole Orchestra conducted by Vince Mendoza:
Soloists:
Rafael de Utrera – Vocals
Eva de Dios – Vocals
Daniel Méndez – Guitar
Udo Demandt – Cajón
Arturo Ramón – Palmas
Daniel Navarro – Dancing
Choir:
Jennifer Barnes
Cindy Bourquin
Elin Carlson
 
Лог создания рипа
Exact Audio Copy V1.0 beta 3 from 29. August 2011
EAC extraction logfile from 28. September 2013, 11:01
Vince Mendoza and the Metropole Orchestra / El Viento: The García Lorca Project
Used drive : SlimtypeeNAU508 5 Adapter: 1 ID: 0
Read mode : Secure
Utilize accurate stream : Yes
Defeat audio cache : Yes
Make use of C2 pointers : No
Read offset correction : 6
Overread into Lead-In and Lead-Out : No
Fill up missing offset samples with silence : Yes
Delete leading and trailing silent blocks : No
Null samples used in CRC calculations : Yes
Used interface : Native Win32 interface for Win NT & 2000
Gap handling : Appended to previous track
Used output format : User Defined Encoder
Selected bitrate : 768 kBit/s
Quality : High
Add ID3 tag : No
Command line compressor : C:\Program Files (x86)\Exact Audio Copy\Flac\flac.exe
Additional command line options : -8 -V -T "ARTIST=%artist%" -T "TITLE=%title%" -T "ALBUM=%albumtitle%" -T "DATE=%year%" -T "TRACKNUMBER=%tracknr%" -T "GENRE=%genre%" -T "PERFORMER=%albuminterpret%" -T "COMPOSER=%composer%" %haslyrics%--tag-from-file=LYRICS="%lyricsfile%"%haslyrics% -T "ALBUMARTIST=%albumartist%" -T "DISCNUMBER=%cdnumber%" -T "TOTALDISCS=%totalcds%" -T "TOTALTRACKS=%numtracks%" -T "COMMENT=%comment%" %source% -o %dest%
TOC of the extracted CD
Track | Start | Length | Start sector | End sector
---------------------------------------------------------
1 | 0:00.00 | 4:16.40 | 0 | 19239
2 | 4:16.40 | 4:40.52 | 19240 | 40291
3 | 8:57.17 | 5:19.09 | 40292 | 64225
4 | 14:16.26 | 6:05.70 | 64226 | 91670
5 | 20:22.21 | 8:37.08 | 91671 | 130453
6 | 28:59.29 | 6:23.72 | 130454 | 159250
7 | 35:23.26 | 3:45.05 | 159251 | 176130
8 | 39:08.31 | 6:11.19 | 176131 | 203974
9 | 45:19.50 | 3:34.17 | 203975 | 220041
10 | 48:53.67 | 5:27.61 | 220042 | 244627
11 | 54:21.53 | 9:22.23 | 244628 | 286800
12 | 63:44.01 | 6:59.46 | 286801 | 318271
Track 1
Filename C:\EAC rips\01 - La Canción del Mariquita.wav
Pre-gap length 0:00:02.00
Peak level 98.0 %
Extraction speed 2.4 X
Track quality 100.0 %
Test CRC E2326B75
Copy CRC E2326B75
Accurately ripped (confidence 5) [B87F40D1] (AR v2)
Copy OK
Track 2
Filename C:\EAC rips\02 - Historietas del Viento I - El Viento.wav
Pre-gap length 0:00:00.21
Peak level 98.0 %
Extraction speed 2.6 X
Track quality 100.0 %
Test CRC DD812F78
Copy CRC DD812F78
Accurately ripped (confidence 5) [8B57DAE8] (AR v2)
Copy OK
Track 3
Filename C:\EAC rips\03 - Historietas del Viento II - Viento Estancado.wav
Peak level 98.0 %
Extraction speed 2.9 X
Track quality 100.0 %
Test CRC E29231F3
Copy CRC E29231F3
Accurately ripped (confidence 5) [007B4E2C] (AR v2)
Copy OK
Track 4
Filename C:\EAC rips\04 - Historietas del Viento III - La Brisa.wav
Peak level 98.0 %
Extraction speed 3.2 X
Track quality 100.0 %
Test CRC 9B222C22
Copy CRC 9B222C22
Accurately ripped (confidence 5) [E0EC1041] (AR v2)
Copy OK
Track 5
Filename C:\EAC rips\05 - La Tarara.wav
Pre-gap length 0:00:00.23
Peak level 98.0 %
Extraction speed 3.7 X
Track quality 100.0 %
Test CRC 8A506EBD
Copy CRC 8A506EBD
Accurately ripped (confidence 5) [542CF7E9] (AR v2)
Copy OK
Track 6
Filename C:\EAC rips\06 - De Los Cuatros Muleros.wav
Pre-gap length 0:00:00.21
Peak level 98.0 %
Extraction speed 3.9 X
Track quality 100.0 %
Test CRC BAD5C190
Copy CRC BAD5C190
Accurately ripped (confidence 5) [62DF5E62] (AR v2)
Copy OK
Track 7
Filename C:\EAC rips\07 - Sevillanas del Siglo XVIII.wav
Peak level 98.0 %
Extraction speed 3.0 X
Track quality 99.9 %
Test CRC 6D01AF78
Copy CRC 6D01AF78
Accurately ripped (confidence 5) [47427F80] (AR v2)
Copy OK
Track 8
Filename C:\EAC rips\08 - La Nana del Caballo Grande.wav
Pre-gap length 0:00:00.25
Peak level 73.1 %
Extraction speed 4.2 X
Track quality 100.0 %
Test CRC A3982143
Copy CRC A3982143
Accurately ripped (confidence 5) [E950A314] (AR v2)
Copy OK
Track 9
Filename C:\EAC rips\09 - Los Peregrinitos.wav
Pre-gap length 0:00:00.44
Peak level 98.0 %
Extraction speed 4.0 X
Track quality 100.0 %
Test CRC 7A248A7D
Copy CRC 7A248A7D
Accurately ripped (confidence 5) [6E33EA03] (AR v2)
Copy OK
Track 10
Filename C:\EAC rips\10 - Ángeles Negros.wav
Pre-gap length 0:00:00.21
Peak level 98.0 %
Extraction speed 4.4 X
Track quality 100.0 %
Test CRC F57203C3
Copy CRC F57203C3
Accurately ripped (confidence 5) [AFFDD8B1] (AR v2)
Copy OK
Track 11
Filename C:\EAC rips\11 - Los Mozos de Monleón.wav
Peak level 98.0 %
Extraction speed 4.8 X
Track quality 100.0 %
Test CRC DB83C01A
Copy CRC DB83C01A
Accurately ripped (confidence 5) [A8FD255F] (AR v2)
Copy OK
Track 12
Filename C:\EAC rips\12 - La Leyenda del Tiempo.wav
Peak level 98.0 %
Extraction speed 4.4 X
Track quality 99.9 %
Test CRC 52AAA574
Copy CRC 52AAA574
Accurately ripped (confidence 5) [08192E51] (AR v2)
Copy OK
All tracks accurately ripped
No errors occurred
End of status report
---- CUETools DB Plugin V2.1.4
[CTDB TOCID: EP7QI3b_UCXKhimO8xLD12CnETw-] found
Submit result: EP7QI3b_UCXKhimO8xLD12CnETw- has been confirmed
Track | CTDB Status
1 | (1/1) Accurately ripped
2 | (1/1) Accurately ripped
3 | (1/1) Accurately ripped
4 | (1/1) Accurately ripped
5 | (1/1) Accurately ripped
6 | (1/1) Accurately ripped
7 | (1/1) Accurately ripped
8 | (1/1) Accurately ripped
9 | (1/1) Accurately ripped
10 | (1/1) Accurately ripped
11 | (1/1) Accurately ripped
12 | (1/1) Accurately ripped
==== Log checksum E2C6589891CB392A1E848E5F5F5E3A08778529B3840C37F5E2BA1E4773100784 ====
 
Содержание индексной карты (.CUE)
REM GENRE Jazz
REM DATE 2009
REM DISCID A110930C
REM COMMENT "ExactAudioCopy v1.0b3"
PERFORMER "Vince Mendoza and the Metropole Orchestra"
TITLE "El Viento: The García Lorca Project"
FILE "01 - La Canción del Mariquita.wav" WAVE
TRACK 01 AUDIO
TITLE "La Canción del Mariquita"
PERFORMER "Vince Mendoza and the Metropole Orchestra"
ISRC DEA890900250
INDEX 01 00:00:00
TRACK 02 AUDIO
TITLE "Historietas del Viento I: El Viento"
PERFORMER "Vince Mendoza and the Metropole Orchestra"
ISRC DEA890900251
INDEX 00 04:16:19
FILE "02 - Historietas del Viento I - El Viento.wav" WAVE
INDEX 01 00:00:00
FILE "03 - Historietas del Viento II - Viento Estancado.wav" WAVE
TRACK 03 AUDIO
TITLE "Historietas del Viento II: Viento Estancado"
PERFORMER "Vince Mendoza and the Metropole Orchestra"
ISRC DEA890900252
INDEX 01 00:00:00
FILE "04 - Historietas del Viento III - La Brisa.wav" WAVE
TRACK 04 AUDIO
TITLE "Historietas del Viento III: La Brisa"
PERFORMER "Vince Mendoza and the Metropole Orchestra"
ISRC DEA890900253
INDEX 01 00:00:00
TRACK 05 AUDIO
TITLE "La Tarara"
PERFORMER "Vince Mendoza and the Metropole Orchestra"
ISRC DEA890900254
INDEX 00 06:05:47
FILE "05 - La Tarara.wav" WAVE
INDEX 01 00:00:00
TRACK 06 AUDIO
TITLE "De Los Cuatros Muleros"
PERFORMER "Vince Mendoza and the Metropole Orchestra"
ISRC DEA890900255
INDEX 00 08:36:62
FILE "06 - De Los Cuatros Muleros.wav" WAVE
INDEX 01 00:00:00
FILE "07 - Sevillanas del Siglo XVIII.wav" WAVE
TRACK 07 AUDIO
TITLE "Sevillanas del Siglo XVIII"
PERFORMER "Vince Mendoza and the Metropole Orchestra"
ISRC DEA890900256
INDEX 01 00:00:00
TRACK 08 AUDIO
TITLE "La Nana del Caballo Grande"
PERFORMER "Vince Mendoza and the Metropole Orchestra"
ISRC DEA890900257
INDEX 00 03:44:55
FILE "08 - La Nana del Caballo Grande.wav" WAVE
INDEX 01 00:00:00
TRACK 09 AUDIO
TITLE "Los Peregrinitos"
PERFORMER "Vince Mendoza and the Metropole Orchestra"
ISRC DEA890900258
INDEX 00 06:10:50
FILE "09 - Los Peregrinitos.wav" WAVE
INDEX 01 00:00:00
TRACK 10 AUDIO
TITLE "Ángeles Negros"
PERFORMER "Vince Mendoza and the Metropole Orchestra"
ISRC DEA890900259
INDEX 00 03:33:71
FILE "10 - Ángeles Negros.wav" WAVE
INDEX 01 00:00:00
FILE "11 - Los Mozos de Monleón.wav" WAVE
TRACK 11 AUDIO
TITLE "Los Mozos de Monleón"
PERFORMER "Vince Mendoza and the Metropole Orchestra"
ISRC DEA890900260
INDEX 01 00:00:00
FILE "12 - La Leyenda del Tiempo.wav" WAVE
TRACK 12 AUDIO
TITLE "La Leyenda del Tiempo"
PERFORMER "Vince Mendoza and the Metropole Orchestra"
ISRC DEA890900261
INDEX 01 00:00:00
13:17
300
Нет комментариев. Ваш будет первым!