Поиск

(Jazz, Funk, Latin Jazz) Irakere - Cuba Libre - 2010, FLAC (tracks+.cue), lossless

(Jazz, Funk, Latin Jazz) Irakere - Cuba Libre - 2010, FLAC (tracks+.cue), lossless
Треклист:
Irakere / Cuba Libre
Жанр: Jazz, Funk, Latin Jazz
Страна-производитель диска: Japan
Год издания диска: 2010
Лейбл: Farout Records
Номер по каталогу: FARO150
Страна: Cuba
Аудиокодек: FLAC (*.flac)
Тип рипа: tracks+.cue
Битрейт аудио: lossless
Продолжительность: 0:34:42
Источник: svoyager st.
Наличие сканов в содержимом раздачи: front & back cover
Треклист:
01. Cuba Libre (12:58)
02. Sea Mail (6:58)
03. Encuentro (7:39)
04. Que Pasa? (5:28)
05. Gospelanza (5:59)
06. Cuba libre (Reprise) (1:09)
 
Лог создания рипа
Exact Audio Copy V0.99 prebeta 4 from 23. January 2008
EAC extraction logfile from 15. June 2010, 15:21
Irakere / Cuba Libre
Used drive : TSSTcorpCDDVDW TS-H653N Adapter: 2 ID: 2
Read mode : Secure
Utilize accurate stream : Yes
Defeat audio cache : Yes
Make use of C2 pointers : No
Read offset correction : 6
Overread into Lead-In and Lead-Out : No
Fill up missing offset samples with silence : Yes
Delete leading and trailing silent blocks : No
Null samples used in CRC calculations : Yes
Used interface : Native Win32 interface for Win NT & 2000
Gap handling : Appended to previous track
Used output format : User Defined Encoder
Selected bitrate : 1024 kBit/s
Quality : High
Add ID3 tag : No
Command line compressor : C:\Program Files\FLAC -\flac.exe
Additional command line options : -5 -V -T "artist=%a" -T "title=%t" -T "album=%g" -T "date=%y" -T "tracknumber=%n" -T "genre=%m" -T comment="shared by pastafari cubensis" %s
TOC of the extracted CD
Track | Start | Length | Start sector | End sector
---------------------------------------------------------
1 | 0:00.00 | 12:57.63 | 0 | 58337
2 | 12:57.63 | 6:58.07 | 58338 | 89694
3 | 19:55.70 | 7:38.40 | 89695 | 124084
4 | 27:34.35 | 5:28.14 | 124085 | 148698
5 | 33:02.49 | 5:58.69 | 148699 | 175617
6 | 39:01.43 | 1:08.68 | 175618 | 180785
Track 1
Filename C:\CD_buffer\Irakere - 2010 - Cuba Libre [FLAC]\01- Cuba libre.wav
Pre-gap length 0:00:02.00
Peak level 96.6 %
Track quality 100.0 %
Test CRC A112541F
Copy CRC A112541F
Copy OK
Track 2
Filename C:\CD_buffer\Irakere - 2010 - Cuba Libre [FLAC]\02- Sea Mail.wav
Peak level 96.6 %
Track quality 99.9 %
Test CRC 2F8BDBB3
Copy CRC 2F8BDBB3
Copy OK
Track 3
Filename C:\CD_buffer\Irakere - 2010 - Cuba Libre [FLAC]\03- Encuentro.wav
Peak level 86.1 %
Track quality 100.0 %
Test CRC 4D05F54D
Copy CRC 4D05F54D
Copy OK
Track 4
Filename C:\CD_buffer\Irakere - 2010 - Cuba Libre [FLAC]\04- Quй pasa.wav
Peak level 96.6 %
Track quality 100.0 %
Test CRC CACC6C98
Copy CRC CACC6C98
Copy OK
Track 5
Filename C:\CD_buffer\Irakere - 2010 - Cuba Libre [FLAC]\05- Gospelanza.wav
Peak level 86.1 %
Track quality 100.0 %
Test CRC 56CF2711
Copy CRC 56CF2711
Copy OK
Track 6
Filename C:\CD_buffer\Irakere - 2010 - Cuba Libre [FLAC]\06- Cuba libre (reprise).wav
Peak level 96.6 %
Track quality 100.0 %
Test CRC 0C1DD2FF
Copy CRC 0C1DD2FF
Copy OK
No errors occurred
End of status report
 
Содержание индексной карты (.CUE)
REM GENRE Jazz
REM DATE 2010
REM DISCID 5F096A06
REM COMMENT "ExactAudioCopy v0.99pb4"
PERFORMER "Irakere"
TITLE "Cuba Libre"
FILE "Irakere - 2010 - Cuba Libre [FLAC]\01- Cuba libre.wav" WAVE
TRACK 01 AUDIO
TITLE "Cuba libre"
PERFORMER "Irakere"
FLAGS DCP
INDEX 01 00:00:00
FILE "Irakere - 2010 - Cuba Libre [FLAC]\02- Sea Mail.wav" WAVE
TRACK 02 AUDIO
TITLE "Sea Mail"
PERFORMER "Irakere"
FLAGS DCP
INDEX 01 00:00:00
FILE "Irakere - 2010 - Cuba Libre [FLAC]\03- Encuentro.wav" WAVE
TRACK 03 AUDIO
TITLE "Encuentro"
PERFORMER "Irakere"
FLAGS DCP
INDEX 01 00:00:00
FILE "Irakere - 2010 - Cuba Libre [FLAC]\04- Quй pasa.wav" WAVE
TRACK 04 AUDIO
TITLE "Quй pasa"
PERFORMER "Irakere"
FLAGS DCP
INDEX 01 00:00:00
FILE "Irakere - 2010 - Cuba Libre [FLAC]\05- Gospelanza.wav" WAVE
TRACK 05 AUDIO
TITLE "Gospelanza"
PERFORMER "Irakere"
FLAGS DCP
INDEX 01 00:00:00
FILE "Irakere - 2010 - Cuba Libre [FLAC]\06- Cuba libre (reprise).wav" WAVE
TRACK 06 AUDIO
TITLE "Cuba libre (reprise)"
PERFORMER "Irakere"
FLAGS DCP
INDEX 01 00:00:00
 
Скриншот спектра частот
 
Доп. информация
Recorded at Sound Inn Studio, Tokyo, August 3,4,5, 1980
Remixed at Victor Studio using JVC DAS 90 DIGITAL AUDIO MASTERING SYSTEM
Special Thanks to: Mr. Eduardo H. Gispelt and Cuban Embassy / Mr. Hideyo Fukasaku / Miss Atsuko Yamamoto / Mr. Jun Takemura / Mr. Toyo Nakamura
Front Cover: "Tres Lindas Cubas"
 
Состав
Chucho Valdes - keyboards
Arturo Sandoval - trumpet
Jorge Varona - trumpet
Carlos Averhoff - tenor sax
Oscar Valdes - percussion
Enrique Pla - drums
German Velazco Vrdeliz - alto sax
Carlos Emilio Morales - guitar
Carlos Del Puerto - bass
Jorge Alfonso - percussion
Tadao Tokoro - Executive Producer
Sakae Sekine - Recorded & Mixed
Chikara Ueda - Written, Composed, Arranged and Producer
00:15
346
Нет комментариев. Ваш будет первым!