Поиск

(Ethnic Fusion, Contemporary Jazz) Toufic Farroukh - Ali on Broadway The other Mix - 2004, FLAC (tracks+.cue), lossless

(Ethnic Fusion, Contemporary Jazz) Toufic Farroukh - Ali on Broadway The other Mix - 2004, FLAC (tracks+.cue), lossless
Треклист:
Toufic Farroukh / Ali on Broadway The other Mix
Жанр: Ethnic Fusion, Contemporary Jazz
Страна-производитель диска: Russia
Год издания диска: 2004
Издатель (лейбл): пиратка (Tau Analyser - 100%CDDA)
Страна: Lebanon
Аудиокодек: FLAC (*.flac)
Тип рипа: tracks+.cue
Битрейт аудио: lossless
Продолжительность: 51:55
Источник (релизер): duppyB
Наличие сканов в содержимом раздачи: да
Треклист:
01. Like Desire
02. Tagada Dance
03. Streets And Faces
04. Hand Made
05. Another Day
06. Open The Door
07. For Once
08. 549 Blues
09. Like Desire - Moonfish Remix
Доп. информация: discogs.com
 
Лог создания рипа
Exact Audio Copy V0.99 prebeta 5 from 4. May 2009
EAC extraction logfile from 20. September 2011, 8:06
Toufic Farroukh / Ali on Broadway The other Mix
Used drive : ASUS DRW-24B3LT Adapter: 3 ID: 0
Read mode : Secure
Utilize accurate stream : Yes
Defeat audio cache : Yes
Make use of C2 pointers : No
Read offset correction : 6
Overread into Lead-In and Lead-Out : No
Fill up missing offset samples with silence : Yes
Delete leading and trailing silent blocks : No
Null samples used in CRC calculations : Yes
Used interface : Native Win32 interface for Win NT & 2000
Gap handling : Appended to previous track
Used output format : User Defined Encoder
Selected bitrate : 128 kBit/s
Quality : High
Add ID3 tag : No
Command line compressor : C:\Program Files\Exact Audio Copy\FLAC\FLAC.EXE
Additional command line options : -8 -V -T "ARTIST=%a" -T "TITLE=%t" -T "ALBUM=%g" -T "DATE=%y" -T "TRACKNUMBER=%n" -T "GENRE=%m" -T "COMMENT=EAC FLAC -8" %s
TOC of the extracted CD
Track | Start | Length | Start sector | End sector
---------------------------------------------------------
1 | 0:00.00 | 5:34.33 | 0 | 25082
2 | 5:34.33 | 6:41.15 | 25083 | 55172
3 | 12:15.48 | 6:16.06 | 55173 | 83378
4 | 18:31.54 | 3:27.03 | 83379 | 98906
5 | 21:58.57 | 4:44.26 | 98907 | 120232
6 | 26:43.08 | 6:21.03 | 120233 | 148810
7 | 33:04.11 | 4:25.14 | 148811 | 168699
8 | 37:29.25 | 6:43.03 | 168700 | 198927
9 | 44:12.28 | 7:41.34 | 198928 | 233536
Track 1
Filename E:\Toufic Farroukh - Ali on Broadway The other Mix (2004)\01. Toufic Farroukh – Like Desire.wav
Pre-gap length 0:00:02.00
Peak level 100.0 %
Track quality 100.0 %
Test CRC CFD5D264
Copy CRC CFD5D264
Track not present in AccurateRip database
Copy OK
Track 2
Filename E:\Toufic Farroukh - Ali on Broadway The other Mix (2004)\02. Toufic Farroukh – Tagada Dance.wav
Pre-gap length 0:00:04.30
Peak level 100.0 %
Track quality 100.0 %
Test CRC 63130A19
Copy CRC 63130A19
Track not present in AccurateRip database
Copy OK
Track 3
Filename E:\Toufic Farroukh - Ali on Broadway The other Mix (2004)\03. Toufic Farroukh – Streets And Faces.wav
Pre-gap length 0:00:01.58
Peak level 100.0 %
Track quality 100.0 %
Test CRC 38D39108
Copy CRC 38D39108
Track not present in AccurateRip database
Copy OK
Track 4
Filename E:\Toufic Farroukh - Ali on Broadway The other Mix (2004)\04. Toufic Farroukh – Hand Made.wav
Pre-gap length 0:00:03.33
Peak level 100.0 %
Track quality 100.0 %
Test CRC 12F2388E
Copy CRC 12F2388E
Track not present in AccurateRip database
Copy OK
Track 5
Filename E:\Toufic Farroukh - Ali on Broadway The other Mix (2004)\05. Toufic Farroukh – Another Day.wav
Pre-gap length 0:00:03.34
Peak level 100.0 %
Track quality 100.0 %
Test CRC 69A7354C
Copy CRC 69A7354C
Track not present in AccurateRip database
Copy OK
Track 6
Filename E:\Toufic Farroukh - Ali on Broadway The other Mix (2004)\06. Toufic Farroukh – Open The Door.wav
Pre-gap length 0:00:03.61
Peak level 100.0 %
Track quality 100.0 %
Test CRC 3D9EFE08
Copy CRC 3D9EFE08
Track not present in AccurateRip database
Copy OK
Track 7
Filename E:\Toufic Farroukh - Ali on Broadway The other Mix (2004)\07. Toufic Farroukh – For Once.wav
Pre-gap length 0:00:03.47
Peak level 100.0 %
Track quality 100.0 %
Test CRC C7963C0E
Copy CRC C7963C0E
Track not present in AccurateRip database
Copy OK
Track 8
Filename E:\Toufic Farroukh - Ali on Broadway The other Mix (2004)\08. Toufic Farroukh – 549 Blues.wav
Pre-gap length 0:00:03.45
Peak level 100.0 %
Track quality 100.0 %
Test CRC 1122927E
Copy CRC 1122927E
Track not present in AccurateRip database
Copy OK
Track 9
Filename E:\Toufic Farroukh - Ali on Broadway The other Mix (2004)\09. Toufic Farroukh – Like Desire - Moonfish Remix.wav
Pre-gap length 0:00:06.52
Peak level 94.4 %
Track quality 100.0 %
Test CRC A104334D
Copy CRC A104334D
Track not present in AccurateRip database
Copy OK
None of the tracks are present in the AccurateRip database
No errors occurred
End of status report
 
Содержание индексной карты (.CUE)
REM GENRE Jazz
REM DATE 2004
REM DISCID 6A0C2909
REM COMMENT "ExactAudioCopy v0.99pb5"
PERFORMER "Toufic Farroukh"
TITLE "Ali on Broadway The other Mix"
FILE "01. Toufic Farroukh – Like Desire.wav" WAVE
TRACK 01 AUDIO
TITLE "Like Desire"
PERFORMER "Toufic Farroukh"
ISRC FRYAU9300010
INDEX 01 00:00:00
TRACK 02 AUDIO
TITLE "Tagada Dance"
PERFORMER "Toufic Farroukh"
ISRC FRYAU9300020
INDEX 00 05:30:03
FILE "02. Toufic Farroukh – Tagada Dance.wav" WAVE
INDEX 01 00:00:00
TRACK 03 AUDIO
TITLE "Streets And Faces"
PERFORMER "Toufic Farroukh"
ISRC FRYAU9300030
INDEX 00 06:39:32
FILE "03. Toufic Farroukh – Streets And Faces.wav" WAVE
INDEX 01 00:00:00
TRACK 04 AUDIO
TITLE "Hand Made"
PERFORMER "Toufic Farroukh"
ISRC FRYAU9300040
INDEX 00 06:12:48
FILE "04. Toufic Farroukh – Hand Made.wav" WAVE
INDEX 01 00:00:00
TRACK 05 AUDIO
TITLE "Another Day"
PERFORMER "Toufic Farroukh"
ISRC FRYAU9300050
INDEX 00 03:23:44
FILE "05. Toufic Farroukh – Another Day.wav" WAVE
INDEX 01 00:00:00
TRACK 06 AUDIO
TITLE "Open The Door"
PERFORMER "Toufic Farroukh"
ISRC FRYAU9300060
INDEX 00 04:40:40
FILE "06. Toufic Farroukh – Open The Door.wav" WAVE
INDEX 01 00:00:00
TRACK 07 AUDIO
TITLE "For Once"
PERFORMER "Toufic Farroukh"
ISRC FRYAU9300070
INDEX 00 06:17:31
FILE "07. Toufic Farroukh – For Once.wav" WAVE
INDEX 01 00:00:00
TRACK 08 AUDIO
TITLE "549 Blues"
PERFORMER "Toufic Farroukh"
ISRC FRYAU9300080
INDEX 00 04:21:44
FILE "08. Toufic Farroukh – 549 Blues.wav" WAVE
INDEX 01 00:00:00
TRACK 09 AUDIO
TITLE "Like Desire - Moonfish Remix"
PERFORMER "Toufic Farroukh"
ISRC FRYAU9300090
INDEX 00 06:36:26
FILE "09. Toufic Farroukh – Like Desire - Moonfish Remix.wav" WAVE
INDEX 01 00:00:00
 
Лог проверки качества
-----------------------
DON'T MODIFY THIS FILE
-----------------------
PERFORMER: auCDtect Task Manager, ver. 1.5.1RC4 build 1.5.1.5
Copyright (c) 2008-2010 y-soft. All rights reserved
http://y-soft.org
ANALYZER: auCDtect: CD records authenticity detector, version 0.8.2
Copyright (c) 2004 Oleg Berngardt. All rights reserved.
Copyright (c) 2004 Alexander Djourik. All rights reserved.
FILE: 09. Toufic Farroukh – Like Desire - Moonfish Remix.flac
Size: 55405616 Hash: 8887C464FDC83DA6C6C4642BD4697307 Accuracy: -m0
Conclusion: CDDA 100%
Signature: 862448523404A8AB1514F0768EC9D4A87063C886
FILE: 08. Toufic Farroukh – 549 Blues.flac
Size: 45798250 Hash: A2F9B5944B5C5C4A85ED0EB9EB33D899 Accuracy: -m0
Conclusion: CDDA 100%
Signature: 8CD8BBCBC69CF775D85757B00F68FEE828418F52
FILE: 07. Toufic Farroukh – For Once.flac
Size: 31320408 Hash: 8841EFBF1AEEA478F9BCFFF0E6B3E0CB Accuracy: -m0
Conclusion: CDDA 100%
Signature: 0DBE00F6E51A895E36CD042D095DB9D0E4401C4D
FILE: 06. Toufic Farroukh – Open The Door.flac
Size: 42790243 Hash: 6AF937E434440C9DD5A6EFA73D99E6E1 Accuracy: -m0
Conclusion: CDDA 100%
Signature: 7DFBC26056C53E68176EB3D21819B2BDF0881124
FILE: 05. Toufic Farroukh – Another Day.flac
Size: 33079891 Hash: D0110CF8B1E948BBE658D2EFAC76CA16 Accuracy: -m0
Conclusion: CDDA 100%
Signature: 0A44F35BD50FD1A5DC2008694067CD44C0944E6E
FILE: 04. Toufic Farroukh – Hand Made.flac
Size: 25239500 Hash: 95A100C47B9A5BBCB92E5ED3D703850F Accuracy: -m0
Conclusion: CDDA 99%
Signature: E06C03360FD040E8CBEDE89EF9E84F347BBFBCD2
FILE: 03. Toufic Farroukh – Streets And Faces.flac
Size: 41334627 Hash: AAD082FF337E659A5A3FDD5A9DF0C5BD Accuracy: -m0
Conclusion: CDDA 100%
Signature: 1B468FF1FAD4D49DF4F0587EAB5F50D0D9AB3669
FILE: 02. Toufic Farroukh – Tagada Dance.flac
Size: 42935468 Hash: 3255EEABC9EF249892147A6425251BC4 Accuracy: -m0
Conclusion: CDDA 99%
Signature: CDE3FAC105DA6DF1CF98D88A769980D2B285C715
FILE: 01. Toufic Farroukh – Like Desire.flac
Size: 41756985 Hash: 311C83E710F36F97532791FBD09F03A2 Accuracy: -m0
Conclusion: CDDA 100%
Signature: 0C90346488170B525DB1E77273089F4CA3387471
 
Состав
* Bass Guitar [Fretless & 6 String] – Mishko*
* Co-producer – Radwan Hoteit, Toufic Farroukh
* Composed By, Arranged By, Producer – Toufic Farroukh
* Design, Photography – François Sargologo
* Djembe [Djambé], Congas, Percussion – Ibrahim Jaber
* Drums – Etienne Brachet (tracks: 2, 3, 5 to 8), Yves Abadi* (tracks: 1, 4)
* Edited By, Mixed By, Technician [Transfered To Pro-tools] – J. B. Brunhes*
* Effects [Bruitages] – Nicolas Moreau (tracks: 2, 7)
* Mastered By – J. C.*
* Ney – Samir Siblini
* Other [Music Charts] – François Dulac (tracks: 3, 5 to 7), Toufic Farroukh (tracks: 3, 5 to 7)
* Oud – Charbel Rouhana
* Recorded By – Philippe Thome, Vincent Brulet*
* Saxophone, Bendir, Bongos, Percussion – Toufic Farroukh
* Trombone – Daniel Casimir
* Trumpet, Flugelhorn – Nicolas Genest
00:14
305
Нет комментариев. Ваш будет первым!