Поиск

(Jazz-Funk, Free Jazz) [CD] Sounds of Liberation - Sounds of Liberation - 1972 (2010), FLAC (tracks+.cue), lossless

(Jazz-Funk, Free Jazz) [CD] Sounds of Liberation - Sounds of Liberation - 1972 (2010), FLAC (tracks+.cue), lossless
Треклист:
Sounds of Liberation - Sounds of Liberation
Жанр: Jazz-Funk, Free Jazz
Носитель: CD
Страна-производитель диска (релиза): США
Год издания: 2010
Издатель (лейбл): Porter Records
Номер по каталогу: PRCD-1508
Аудиокодек: FLAC (*.flac)
Тип рипа: tracks+.cue
Битрейт аудио: lossless
Продолжительность: 51:35
Источник (релизер): apollo
Наличие сканов в содержимом раздачи: сетевые
Треклист:
01. Happy Tuesday (19:20)
02. New Horizons II (5:24)
03. Billie One (2:49)
04. We'll Tell You Later (10:45)
05. New Horizons I (10:36)
06. New Life (2:41)
Состав:
Byard Lancaster - alto saxophone
Khan Jamal - vibes
Billy Mills - bass
Rashid Salim - conga
Monnette Sudler - guitar
Omar Hill - percussion
Dwight James - drums
Recorded at Impact Sound, Philadelphia in March 1972.
 
Лог создания рипа
Exact Audio Copy V1.0 beta 6 from 9. April 2015
EAC extraction logfile from 30. August 2015, 19:03
Sounds Of Liberation / Sounds Of Liberation
Used drive : MATSHITADVD+-RW UJ8FB Adapter: 1 ID: 0
Read mode : Secure
Utilize accurate stream : Yes
Defeat audio cache : Yes
Make use of C2 pointers : No
Read offset correction : 6
Overread into Lead-In and Lead-Out : No
Fill up missing offset samples with silence : Yes
Delete leading and trailing silent blocks : No
Null samples used in CRC calculations : Yes
Used interface : Native Win32 interface for Win NT & 2000
Gap handling : Appended to previous track
Used output format : User Defined Encoder
Selected bitrate : 1024 kBit/s
Quality : High
Add ID3 tag : No
Command line compressor : C:\Program Files\Flac\flac.exe
Additional command line options : -8 -V -T "ARTIST=%artist%" -T "TITLE=%title%" -T "ALBUM=%albumtitle%" -T "DATE=%year%" -T "TRACKNUMBER=%tracknr%" -T "GENRE=%genre%" -T "PERFORMER=%albuminterpret%" -T "COMPOSER=%composer%" %haslyrics%--tag-from-file=LYRICS="%lyricsfile%"%haslyrics% -T "ALBUMARTIST=%albumartist%" -T "DISCNUMBER=%cdnumber%" -T "TOTALDISCS=%totalcds%" -T "TOTALTRACKS=%numtracks%" -T "COMMENT=%comment%" %source% -o %dest%
TOC of the extracted CD
Track | Start | Length | Start sector | End sector
---------------------------------------------------------
1 | 0:00.00 | 19:20.00 | 0 | 86999
2 | 19:20.00 | 5:24.00 | 87000 | 111299
3 | 24:44.00 | 2:49.00 | 111300 | 123974
4 | 27:33.00 | 10:45.00 | 123975 | 172349
5 | 38:18.00 | 10:36.00 | 172350 | 220049
6 | 48:54.00 | 2:41.00 | 220050 | 232124
Track 1
Filename C:\EAC Rips\Sounds Of Liberation - Sounds Of Liberation (1972)\01 - Happy Tuesday.wav
Pre-gap length 0:00:02.00
Peak level 99.7 %
Extraction speed 3.3 X
Track quality 99.9 %
Test CRC 43EFDD38
Copy CRC 43EFDD38
Track not present in AccurateRip database
Copy OK
Track 2
Filename C:\EAC Rips\Sounds Of Liberation - Sounds Of Liberation (1972)\02 - New Horizons II.wav
Peak level 99.7 %
Extraction speed 3.4 X
Track quality 99.9 %
Test CRC D34F676C
Copy CRC D34F676C
Track not present in AccurateRip database
Copy OK
Track 3
Filename C:\EAC Rips\Sounds Of Liberation - Sounds Of Liberation (1972)\03 - Billie One.wav
Peak level 99.7 %
Extraction speed 2.8 X
Track quality 99.9 %
Test CRC C3606BED
Copy CRC C3606BED
Track not present in AccurateRip database
Copy OK
Track 4
Filename C:\EAC Rips\Sounds Of Liberation - Sounds Of Liberation (1972)\04 - We'll Tell You Later.wav
Peak level 99.7 %
Extraction speed 4.6 X
Track quality 100.0 %
Test CRC A689AD18
Copy CRC A689AD18
Track not present in AccurateRip database
Copy OK
Track 5
Filename C:\EAC Rips\Sounds Of Liberation - Sounds Of Liberation (1972)\05 - New Horizons I.wav
Peak level 99.7 %
Extraction speed 5.1 X
Track quality 100.0 %
Test CRC F3DE5B3A
Copy CRC F3DE5B3A
Track not present in AccurateRip database
Copy OK
Track 6
Filename C:\EAC Rips\Sounds Of Liberation - Sounds Of Liberation (1972)\06 - New Life.wav
Peak level 100.0 %
Extraction speed 3.5 X
Track quality 99.9 %
Test CRC 91EA0158
Copy CRC 91EA0158
Track not present in AccurateRip database
Copy OK
None of the tracks are present in the AccurateRip database
No errors occurred
End of status report
---- CUETools DB Plugin V2.1.6
[CTDB TOCID: WHkwYHBQQZFAt1GtyWlL4PW9ZxI-] found
Submit result: WHkwYHBQQZFAt1GtyWlL4PW9ZxI- has been confirmed
Track | CTDB Status
1 | (1/1) Accurately ripped
2 | (1/1) Accurately ripped
3 | (1/1) Accurately ripped
4 | (1/1) Accurately ripped
5 | (1/1) Accurately ripped
6 | (1/1) Accurately ripped
==== Log checksum 6ACEBD4A398AAA1F1FE5F83F832EDDDCCDEF229D7A204434A70315F19EE4BD96 ====
 
Содержание индексной карты (.CUE)
REM GENRE Jazz
REM DATE 1972
REM DISCID 490C1706
REM COMMENT "ExactAudioCopy v1.0b6"
PERFORMER "Sounds of Liberation"
TITLE "Sounds of Liberation"
FILE "01 - Happy Tuesday.wav" WAVE
TRACK 01 AUDIO
TITLE "Happy Tuesday"
PERFORMER "Sounds of Liberation"
ISRC USM3Y1508001
INDEX 01 00:00:00
FILE "02 - New Horizons II.wav" WAVE
TRACK 02 AUDIO
TITLE "New Horizons II"
PERFORMER "Sounds of Liberation"
ISRC USM3Y1508002
INDEX 01 00:00:00
FILE "03 - Billie One.wav" WAVE
TRACK 03 AUDIO
TITLE "Billie One"
PERFORMER "Sounds of Liberation"
ISRC USM3Y1508003
INDEX 01 00:00:00
FILE "04 - We'll Tell You Later.wav" WAVE
TRACK 04 AUDIO
TITLE "We'll Tell You Later"
PERFORMER "Sounds of Liberation"
ISRC USM3Y1508004
INDEX 01 00:00:00
FILE "05 - New Horizons I.wav" WAVE
TRACK 05 AUDIO
TITLE "New Horizons I"
PERFORMER "Sounds of Liberation"
ISRC USM3Y1508005
INDEX 01 00:00:00
FILE "06 - New Life.wav" WAVE
TRACK 06 AUDIO
TITLE "New Life"
PERFORMER "Sounds of Liberation"
ISRC USM3Y1508006
INDEX 01 00:00:00
 
Отчет CUETools
[CUETools log; Date: 27.01.2017 16:02:37; Version: 2.1.5]
[CTDB TOCID: WHkwYHBQQZFAt1GtyWlL4PW9ZxI-] found.
Track | CTDB Status
1 | (2/2) Accurately ripped
2 | (2/2) Accurately ripped
3 | (2/2) Accurately ripped
4 | (2/2) Accurately ripped
5 | (2/2) Accurately ripped
6 | (2/2) Accurately ripped
[AccurateRip ID: 000e7270-004967e6-490c1706] disk not present in database.
Track Peak [ CRC32 ] [W/O NULL] [ LOG ]
-- 100,0 [C701AF77] [E115BACB]
01 99,7 [43EFDD38] [A93506C1] CRC32
02 99,7 [D34F676C] [40F9EF50] CRC32
03 99,7 [C3606BED] [22B2786E] CRC32
04 99,7 [A689AD18] [7427B3B8] CRC32
05 99,7 [F3DE5B3A] [34258104] CRC32
06 100,0 [91EA0158] [7CB10D8B] CRC32
 
AllMusic Review by Thom Jurek
Sounds of Liberation were a Philadelphia-based vanguard jazz septet founded by vibraphonist Khan Jamal. The group also included alto saxophonist Byard Lancaster, guitarist Monnette Sudler, drummer Dwight James, percussionist Omar Hill, bassist Billy Mills, and conguero Rashid Salim. The collective also credited George Gilmore as its spiritual advisor. Sounds of Liberation released one self-titled record in 1972. It reflected the African American spirit of self-determination in an era that also birthed independent labels like Detroit’s Tribe Records, Oakland’s Black Jazz, and Charlies Tolliver's and Stanley Cowell's Strata East. SOL was long sought on the collector’s market and thought an all but lost grail until Jamal and Lancaster approached Porter Records' Luke Mosling; he agreed to release it unheard. SOL's reputation as a classic of vanguard spiritual jazz is well-founded. Its six selections reveal a remarkable interplay between rhythmic instruments, and the incredible technical facility of Lancaster in particular. Jamal is a master bandleader; his vibes bridge musical traditionss -- African trance music, free jazz, and funk -- as well as electric and acoustic instruments, creating a unified whole from the parts. One listen to the nearly 20-minute opening cut, “Happy Tuesday,” is evidence enough. The interplay between James’ drums, congas, and hand percussion is astonishing. Lancaster solos over the top with a remarkablee depth of emotional and technical facility, while Sudler’s guitar and Jamal’s vibes create two textures: the former, a dense fiery Wall of Sound, and the latter, a fluid melodicism way inside the music. “New Horizons II” finds Jamal’s reverbed vibes leading the pack as Lancaster fills the the top layer with uplifting and rousing solo breaks, but it is the Latin rhythms percolating ito a volcanic eruption that push it over the top. “Billie One” is also a Latin-inspired funk-rock groover with a terrific solo by Jamal, but it is Mills' startling electric bass playing that startles. “New Horizons I” picks up where its predecessor left off with Cuban, Panamanian, and even Afro-Brazilian polyrhythms juxtaposed against crying spiritual saxophone by Lancaster, and a stinging lead guitar break by Sudler, who also plays grooved-out funk vamps with Mills. The unearthed Sounds of Liberation is a treasure of '70s jazz certainly, but it is also a spiritual jazz classic.
Приватный:
Нет (DHT включён)
Размер:
230.67 Мб (241,878,062 байт) » файлов: 13
Участники:
0 раздают, 0 качают (0 участников всего)
Внешние участники:
2 раздают, 1 качают (3 участников всего) [ Обновить ]
Есть вопросы - пишите личное сообщение пользователю M0p94ok.
12:51
52
Нет комментариев. Ваш будет первым!