Поиск

(Jazz-Funk, Disco) [CD] Herbie Hancock - Feets Don't Fail Me Now - 1979 (1998 Japan Edition), FLAC (tracks+.cue), lossless

(Jazz-Funk, Disco) [CD] Herbie Hancock - Feets Don't Fail Me Now - 1979 (1998 Japan Edition), FLAC (tracks+.cue), lossless
Треклист:
Herbie Hancock - Feets Don't Fail Me Now
Жанр: Jazz-Funk, Disco
Носитель: CD
Страна-производитель диска (релиза): Япония
Год издания: 1979 (1998)
Издатель (лейбл): Sony Records
Номер по каталогу: SRCS 9504
Страна исполнителя (группы): США
Аудиокодек: FLAC (*.flac)
Тип рипа: tracks+.cue
Битрейт аудио: lossless
Продолжительность: 40:33
Источник (релизер): fastfood (what)
Наличие сканов в содержимом раздачи: сетевые
Треклист:
01. You Bet Your Love (Hancock-Rubinson-Willis-Cohen) - 7:40
02. Trust Me (Hancock-Rubinson-Willis) - 5:44
03. Ready or Not (Parker-Cohen) - 6:46
04. Tell Everybody (Hancock-Rubinson-Cohen-Good) - 7:49
05. Honey from the Jar (Hancock-Cohen) - 6:53
06. Knee Deep (Ragin-Hancock) - 5:41
 
Лог создания рипа
Exact Audio Copy V1.1 from 23. June 2015
EAC extraction logfile from 20. March 2016, 8:38
Herbie Hancock / Feets Don't Fail Me Now
Used drive : PIONEER BD-RW BDR-XD05 Adapter: 1 ID: 2
Read mode : Secure
Utilize accurate stream : Yes
Defeat audio cache : Yes
Make use of C2 pointers : No
Read offset correction : 667
Overread into Lead-In and Lead-Out : No
Fill up missing offset samples with silence : Yes
Delete leading and trailing silent blocks : No
Null samples used in CRC calculations : Yes
Used interface : Native Win32 interface for Win NT & 2000
Gap handling : Appended to previous track
Used output format : User Defined Encoder
Selected bitrate : 1024 kBit/s
Quality : High
Add ID3 tag : No
Command line compressor : C:\Program Files (x86)\Exact Audio Copy\Flac\flac.exe
Additional command line options : -8 -V -T "ARTIST=%artist%" -T "TITLE=%title%" -T "ALBUM=%albumtitle%" -T "DATE=%year%" -T "TRACKNUMBER=%tracknr%" -T "GENRE=%genre%" -T "PERFORMER=%albuminterpret%" -T "COMPOSER=%composer%" %haslyrics%--tag-from-file=LYRICS="%lyricsfile%"%haslyrics% -T "ALBUMARTIST=%albumartist%" -T "DISCNUMBER=%cdnumber%" -T "TOTALDISCS=%totalcds%" -T "TOTALTRACKS=%numtracks%" -T "COMMENT=%comment%" %source% -o %dest%
TOC of the extracted CD
Track | Start | Length | Start sector | End sector
---------------------------------------------------------
1 | 0:00.00 | 7:40.20 | 0 | 34519
2 | 7:40.20 | 5:44.02 | 34520 | 60321
3 | 13:24.22 | 6:46.15 | 60322 | 90786
4 | 20:10.37 | 7:48.63 | 90787 | 125949
5 | 27:59.25 | 6:52.52 | 125950 | 156901
6 | 34:52.02 | 5:41.30 | 156902 | 182506
Track 1
Filename C:\EAC Rips\Herbie Hancock - Feets Don't Fail Me Now (1979) [FLAC] {1998}\01 You Bet Your Love.wav
Pre-gap length 0:00:02.00
Peak level 100.0 %
Extraction speed 3.1 X
Track quality 100.0 %
Test CRC 3EDFDBFA
Copy CRC 3EDFDBFA
Accurately ripped (confidence 5) [493FDFF1] (AR v2)
Copy OK
Track 2
Filename C:\EAC Rips\Herbie Hancock - Feets Don't Fail Me Now (1979) [FLAC] {1998}\02 Trust Me.wav
Pre-gap length 0:00:02.60
Peak level 85.9 %
Extraction speed 3.5 X
Track quality 100.0 %
Test CRC B2E67CAB
Copy CRC B2E67CAB
Accurately ripped (confidence 5) [F1A469F9] (AR v2)
Copy OK
Track 3
Filename C:\EAC Rips\Herbie Hancock - Feets Don't Fail Me Now (1979) [FLAC] {1998}\03 Ready or Not.wav
Pre-gap length 0:00:00.80
Peak level 100.0 %
Extraction speed 3.9 X
Track quality 100.0 %
Test CRC 22B9A742
Copy CRC 22B9A742
Accurately ripped (confidence 6) [6787F65F] (AR v2)
Copy OK
Track 4
Filename C:\EAC Rips\Herbie Hancock - Feets Don't Fail Me Now (1979) [FLAC] {1998}\04 Tell Everybody.wav
Pre-gap length 0:00:01.86
Peak level 100.0 %
Extraction speed 4.3 X
Track quality 100.0 %
Test CRC F1B6FD1D
Copy CRC F1B6FD1D
Accurately ripped (confidence 5) [C9091117] (AR v2)
Copy OK
Track 5
Filename C:\EAC Rips\Herbie Hancock - Feets Don't Fail Me Now (1979) [FLAC] {1998}\05 Honey from the Jar.wav
Peak level 100.0 %
Extraction speed 4.5 X
Track quality 100.0 %
Test CRC DDCEB627
Copy CRC DDCEB627
Accurately ripped (confidence 5) [2A16B37D] (AR v2)
Copy OK
Track 6
Filename C:\EAC Rips\Herbie Hancock - Feets Don't Fail Me Now (1979) [FLAC] {1998}\06 Knee Deep.wav
Pre-gap length 0:00:00.82
Peak level 100.0 %
Extraction speed 4.7 X
Track quality 100.0 %
Test CRC F65F6A0E
Copy CRC F65F6A0E
Accurately ripped (confidence 5) [BDB162D9] (AR v2)
Copy OK
All tracks accurately ripped
No errors occurred
End of status report
---- CUETools DB Plugin V2.1.6
[CTDB TOCID: uWtSLPK_gAgmt9nGiKksjSvIboY-] found
Submit result: uWtSLPK_gAgmt9nGiKksjSvIboY- has been confirmed
Track | CTDB Status
1 | (5/5) Accurately ripped
2 | (5/5) Accurately ripped
3 | (5/5) Accurately ripped
4 | (5/5) Accurately ripped
5 | (5/5) Accurately ripped
6 | (5/5) Accurately ripped
==== Log checksum DBFD190C9AF67AFAAAEDA96BBE2D14EB18E8BAC96C64B15DC2949CDDCF69B6F9 ====
 
Содержание индексной карты (.CUE)
REM GENRE Jazz
REM DATE 1979
REM DISCID 41098106
REM COMMENT "ExactAudioCopy v1.1"
PERFORMER "Herbie Hancock"
TITLE "Feets Don't Fail Me Now"
FILE "01 - You Bet Your Love.wav" WAVE
TRACK 01 AUDIO
TITLE "You Bet Your Love"
PERFORMER "Herbie Hancock"
INDEX 01 00:00:00
TRACK 02 AUDIO
TITLE "Trust Me"
PERFORMER "Herbie Hancock"
INDEX 00 07:37:50
FILE "02 - Trust Me.wav" WAVE
INDEX 01 00:00:00
TRACK 03 AUDIO
TITLE "Ready or Not"
PERFORMER "Herbie Hancock"
INDEX 00 05:43:17
FILE "03 - Ready or Not.wav" WAVE
INDEX 01 00:00:00
TRACK 04 AUDIO
TITLE "Tell Everybody"
PERFORMER "Herbie Hancock"
INDEX 00 06:44:25
FILE "04 - Tell Everybody.wav" WAVE
INDEX 01 00:00:00
FILE "05 - Honey from the Jar.wav" WAVE
TRACK 05 AUDIO
TITLE "Honey from the Jar"
PERFORMER "Herbie Hancock"
INDEX 01 00:00:00
TRACK 06 AUDIO
TITLE "Knee Deep"
PERFORMER "Herbie Hancock"
INDEX 00 06:51:65
FILE "06 - Knee Deep.wav" WAVE
INDEX 01 00:00:00
 
Отчет CUETools
[CUETools log; Date: 20.03.2016 16:29:21; Version: 2.1.5]
[CTDB TOCID: uWtSLPK_gAgmt9nGiKksjSvIboY-] found.
Track | CTDB Status
1 | (6/6) Accurately ripped
2 | (6/6) Accurately ripped
3 | (6/6) Accurately ripped
4 | (6/6) Accurately ripped
5 | (6/6) Accurately ripped
6 | (6/6) Accurately ripped
[AccurateRip ID: 0009eeec-0034d2ea-41098106] found.
Track [ CRC | V2 ] Status
01 [9aa469d3|493fdff1] (0+5/5) Accurately ripped
02 [cb91ceb1|f1a469f9] (0+5/5) Accurately ripped
03 [f5099bcc|6787f65f] (0+6/6) Accurately ripped
04 [ef057af2|c9091117] (0+5/5) Accurately ripped
05 [ee2c8bbf|2a16b37d] (0+5/5) Accurately ripped
06 [c11b7e0c|bdb162d9] (0+5/5) Accurately ripped
Track Peak [ CRC32 ] [W/O NULL] [ LOG ]
-- 100,0 [BA81DB4D] [7F933E7B]
01 100,0 [3EDFDBFA] [622AFA6D] CRC32
02 85,9 [B2E67CAB] [60BC8AD7] CRC32
03 100,0 [22B9A742] [B9ADAD6D] CRC32
04 100,0 [F1B6FD1D] [1EDE501B] CRC32
05 100,0 [DDCEB627] [0CABEC42] CRC32
06 100,0 [F65F6A0E] [511048EC] CRC32
 
AllMusic Review by Richard S. Ginell
Herbie Hancock's electric records up until this point were marked by intelligence and adventure, even at their most earthy. But no, this one doesn't have an ounce of either. Herbie falls hook, line and sinker for the disco fad and submerges his personality underneath the plastic vocals and four-on-the-floor disco beat. Hancock's own gauzy vocals through a Sennheiser vocoder are embarrassing, and even his synthesizer work sounds coarse and gimmicky. This time, even the purists were right; this is of no interest to jazz listeners and it isn't even good disco.
 
Состав
Herbie Hancock - lead and background vocals, all keyboards
James Gadson, James Levi (#6) - drums
Eddie Watkins, Freddie Washington (#6) - bass
Ray Obiedo, Wah Wah Watson (#6) - guitar
Bill Summers - percussion
Julia Tillman Waters, Maxine Willard Waters, Oren Waters, Luther Waters - background vocals
Ray Parker, Jr. - guitar and drums (#3)
Coke Escovedo - timbales (#3)
Sheila Escovedo - congas (#3)
Bennie Maupin - soprano saxophone (#6)
Recorded, mixed and mastered at The Automatt, San Francisco, CA.
Herbie's vocals on this record were realized through the use of the Sennheiser Vocoder VSM 201.
#6 was recorded at Bear West Studio, San Francisco, CA.
Приватный:
Нет (DHT включён)
Размер:
240.43 Мб (252,109,236 байт) » файлов: 17
Участники:
0 раздают, 0 качают (0 участников всего)
Внешние участники:
7 раздают, 2 качают (9 участников всего) [ Обновить ]
Есть вопросы - пишите личное сообщение пользователю M0p94ok.
10:21
58
Нет комментариев. Ваш будет первым!