Вы используете незарегистрированную версию компонента "Вкладки"!

Поиск

(Jazz-Funk, Contemporary Jazz) Sex Mob Meets Medeski - Live In Willisau 2006 - 2009, FLAC (tracks+.cue), lossless

Треклист:
Sex Mob Meets Medeski
Live In Willisau 2006
Жанр: Jazz-Funk, Contemporary Jazz
Год выпуска диска: 2009
Производитель диска: Thirsty Ear (THI 57189.2)
Источник: вот.сиди (dsmiz)
Аудио кодек: FLAC
Тип рипа: tracks+.cue
Битрейт аудио: lossless
Продолжительность: 1:03:27
Трэклист:
Willisau Suite 1
1. Mob Rule Invocation 2:09 Krauss , Wollesen , Scherr
2. Mob Rule 1 3:11 Bernstein
3. Black And Tan Fantasy 6:38 Ellington
4. Mob Rule 2/Little Liza Jane 3:34 Bernstein
5. Sign O The Times 4:53 Prince
6. Down On The Farm 3:55 Young , Lewis , Donaldson
Willisau Suite 2
7. This Never Happened To The Other Guy 4:12 Barry
8. Mob Rule 3 4:08 Bernstein
9. The Never Happened Part 2 3:18 Barry
10. Blue And Sentimental 5:36 Basie
11. Kenny Supreme 4:25 Sex Mob
12. Darling Nikki 4:35 Prince
Willisau Suite 3
13. Odd Job 3:33 Barry
14. You Only Live Twice 4:19 Barry
15. Mob Rule 4 2:19 Bernstein
16. Artie Shaw 2:41 Bernstein
Recorded Sept 1, 2006 Live at the Willisau Jazz Festival.
Recorded by Schweizer Radio DRS.
Tony Scherr bass
Kenny Wollesen drums, percussion
John Medeski organ
Briggan Krauss alto saxophone
Steven Bernstein slide trumpet
 
кстати
 
Отчёт XLD
X Lossless Decoder version 20090320 (105.1)
XLD extraction logfile from 2009-04-13 14:07:07 -0400
Sex Mob / Sex Mob meets Medeski-Live in Willisau 2006
Used drive : MATSHITA DVD-R UJ-868 (revision KA14)
Use cdparanoia mode : YES (CDParanoia III 10.2 engine)
Disable audio cache : OK for the drive with cache less than 2750KB
Make use of C2 pointers : NO
Read offset correction : 102
Max retry count : 100
TOC of the extracted CD
Track | Start | Length | Start sector | End sector
---------------------------------------------------------
1 | 00:00:00 | 02:09:39 | 0 | 9713
2 | 02:09:39 | 03:11:28 | 9714 | 24066
3 | 05:20:67 | 06:37:55 | 24067 | 53896
4 | 11:58:47 | 03:34:21 | 53897 | 69967
5 | 15:32:68 | 04:53:07 | 69968 | 91949
6 | 20:26:00 | 03:55:19 | 91950 | 109593
7 | 24:21:19 | 04:12:21 | 109594 | 128514
8 | 28:33:40 | 04:08:05 | 128515 | 147119
9 | 32:41:45 | 03:17:37 | 147120 | 161931
10 | 35:59:07 | 05:36:32 | 161932 | 187163
11 | 41:35:39 | 04:25:23 | 187164 | 207061
12 | 46:00:62 | 04:35:21 | 207062 | 227707
13 | 50:36:08 | 03:32:61 | 227708 | 243668
14 | 54:08:69 | 04:18:36 | 243669 | 263054
15 | 58:27:30 | 02:18:47 | 263055 | 273451
16 | 60:46:02 | 02:40:74 | 273452 | 285525
Track 01
Filename : /Users/davidtoddsmall/Documents/FLACified/01 Sex Mob - Mob Rule Invocation.flac
/Users/davidtoddsmall/Documents/FLACified/01 Sex Mob - Mob Rule Invocation.mp3
CRC32 hash (test run) : C91FE634
CRC32 hash : C91FE634
CRC32 hash (skip zero) : 56C80EC3
AccurateRip signature : 77A5A875
->Track not present in AccurateRip database.
Statistics
Read error : 0
Skipped (treated as error) : 0
Edge jitter error (maybe fixed) : 0
Atom jitter error (maybe fixed) : 0
Drift error (maybe fixed) : 0
Dropped bytes error (maybe fixed) : 0
Duplicated bytes error (maybe fixed) : 0
Inconsistency in error sectors : 0
Track 02
Filename : /Users/davidtoddsmall/Documents/FLACified/02 Sex Mob - Mob Rule 1.flac
/Users/davidtoddsmall/Documents/FLACified/02 Sex Mob - Mob Rule 1.mp3
CRC32 hash (test run) : 081493F4
CRC32 hash : 081493F4
CRC32 hash (skip zero) : 5C299D5B
AccurateRip signature : E31CA4E0
->Track not present in AccurateRip database.
Statistics
Read error : 0
Skipped (treated as error) : 0
Edge jitter error (maybe fixed) : 0
Atom jitter error (maybe fixed) : 0
Drift error (maybe fixed) : 0
Dropped bytes error (maybe fixed) : 0
Duplicated bytes error (maybe fixed) : 0
Inconsistency in error sectors : 0
Track 03
Filename : /Users/davidtoddsmall/Documents/FLACified/03 Sex Mob - Black and Tan Fantasy.flac
/Users/davidtoddsmall/Documents/FLACified/03 Sex Mob - Black and Tan Fantasy.mp3
CRC32 hash (test run) : 0C177173
CRC32 hash : 0C177173
CRC32 hash (skip zero) : 222A11A6
AccurateRip signature : D8E9AF96
->Track not present in AccurateRip database.
Statistics
Read error : 0
Skipped (treated as error) : 0
Edge jitter error (maybe fixed) : 0
Atom jitter error (maybe fixed) : 0
Drift error (maybe fixed) : 0
Dropped bytes error (maybe fixed) : 0
Duplicated bytes error (maybe fixed) : 0
Inconsistency in error sectors : 0
Track 04
Filename : /Users/davidtoddsmall/Documents/FLACified/04 Sex Mob - Mob Rule 2/Little Liza Jane.flac
/Users/davidtoddsmall/Documents/FLACified/04 Sex Mob - Mob Rule 2/Little Liza Jane.mp3
CRC32 hash (test run) : 887538F2
CRC32 hash : 887538F2
CRC32 hash (skip zero) : 08ADB62A
AccurateRip signature : 7CCD79C8
->Track not present in AccurateRip database.
Statistics
Read error : 0
Skipped (treated as error) : 0
Edge jitter error (maybe fixed) : 0
Atom jitter error (maybe fixed) : 0
Drift error (maybe fixed) : 0
Dropped bytes error (maybe fixed) : 0
Duplicated bytes error (maybe fixed) : 0
Inconsistency in error sectors : 0
Track 05
Filename : /Users/davidtoddsmall/Documents/FLACified/05 Sex Mob - Sign O the Times.flac
/Users/davidtoddsmall/Documents/FLACified/05 Sex Mob - Sign O the Times.mp3
CRC32 hash (test run) : 15972266
CRC32 hash : 15972266
CRC32 hash (skip zero) : 53BB13FB
AccurateRip signature : A502EF4C
->Track not present in AccurateRip database.
Statistics
Read error : 0
Skipped (treated as error) : 0
Edge jitter error (maybe fixed) : 0
Atom jitter error (maybe fixed) : 0
Drift error (maybe fixed) : 0
Dropped bytes error (maybe fixed) : 0
Duplicated bytes error (maybe fixed) : 0
Inconsistency in error sectors : 0
Track 06
Filename : /Users/davidtoddsmall/Documents/FLACified/06 Sex Mob - Down on the Farm.flac
/Users/davidtoddsmall/Documents/FLACified/06 Sex Mob - Down on the Farm.mp3
CRC32 hash (test run) : 48F756FA
CRC32 hash : 48F756FA
CRC32 hash (skip zero) : 46011292
AccurateRip signature : B312C877
->Track not present in AccurateRip database.
Statistics
Read error : 0
Skipped (treated as error) : 0
Edge jitter error (maybe fixed) : 0
Atom jitter error (maybe fixed) : 0
Drift error (maybe fixed) : 0
Dropped bytes error (maybe fixed) : 0
Duplicated bytes error (maybe fixed) : 0
Inconsistency in error sectors : 0
Track 07
Filename : /Users/davidtoddsmall/Documents/FLACified/07 Sex Mob - This Never Happened to the Other Guy.flac
/Users/davidtoddsmall/Documents/FLACified/07 Sex Mob - This Never Happened to the Other Guy.mp3
CRC32 hash (test run) : F3F90AD2
CRC32 hash : F3F90AD2
CRC32 hash (skip zero) : 1D63F2E5
AccurateRip signature : A8723611
->Track not present in AccurateRip database.
Statistics
Read error : 0
Skipped (treated as error) : 0
Edge jitter error (maybe fixed) : 0
Atom jitter error (maybe fixed) : 0
Drift error (maybe fixed) : 0
Dropped bytes error (maybe fixed) : 0
Duplicated bytes error (maybe fixed) : 0
Inconsistency in error sectors : 0
Track 08
Filename : /Users/davidtoddsmall/Documents/FLACified/08 Sex Mob - Mob Rule 3.flac
/Users/davidtoddsmall/Documents/FLACified/08 Sex Mob - Mob Rule 3.mp3
CRC32 hash (test run) : BE34BD54
CRC32 hash : BE34BD54
CRC32 hash (skip zero) : 504F3363
AccurateRip signature : 2DA24268
->Track not present in AccurateRip database.
Statistics
Read error : 0
Skipped (treated as error) : 0
Edge jitter error (maybe fixed) : 0
Atom jitter error (maybe fixed) : 0
Drift error (maybe fixed) : 0
Dropped bytes error (maybe fixed) : 0
Duplicated bytes error (maybe fixed) : 0
Inconsistency in error sectors : 0
Track 09
Filename : /Users/davidtoddsmall/Documents/FLACified/09 Sex Mob - This Never Happened Part 2.flac
/Users/davidtoddsmall/Documents/FLACified/09 Sex Mob - This Never Happened Part 2.mp3
CRC32 hash (test run) : FA9AE5F4
CRC32 hash : FA9AE5F4
CRC32 hash (skip zero) : E4B50FF5
AccurateRip signature : 78369369
->Track not present in AccurateRip database.
Statistics
Read error : 0
Skipped (treated as error) : 0
Edge jitter error (maybe fixed) : 0
Atom jitter error (maybe fixed) : 0
Drift error (maybe fixed) : 0
Dropped bytes error (maybe fixed) : 0
Duplicated bytes error (maybe fixed) : 0
Inconsistency in error sectors : 0
Track 10
Filename : /Users/davidtoddsmall/Documents/FLACified/10 Sex Mob - Blue and Sentimental.flac
/Users/davidtoddsmall/Documents/FLACified/10 Sex Mob - Blue and Sentimental.mp3
CRC32 hash (test run) : C4AAAD1D
CRC32 hash : C4AAAD1D
CRC32 hash (skip zero) : 89C28CB4
AccurateRip signature : 13CCC5A0
->Track not present in AccurateRip database.
Statistics
Read error : 0
Skipped (treated as error) : 0
Edge jitter error (maybe fixed) : 0
Atom jitter error (maybe fixed) : 0
Drift error (maybe fixed) : 0
Dropped bytes error (maybe fixed) : 0
Duplicated bytes error (maybe fixed) : 0
Inconsistency in error sectors : 0
Track 11
Filename : /Users/davidtoddsmall/Documents/FLACified/11 Sex Mob - Kenny Supreme.flac
/Users/davidtoddsmall/Documents/FLACified/11 Sex Mob - Kenny Supreme.mp3
CRC32 hash (test run) : 2CE3BED7
CRC32 hash : 2CE3BED7
CRC32 hash (skip zero) : DEF10D42
AccurateRip signature : E15CF94F
->Track not present in AccurateRip database.
Statistics
Read error : 0
Skipped (treated as error) : 0
Edge jitter error (maybe fixed) : 0
Atom jitter error (maybe fixed) : 0
Drift error (maybe fixed) : 0
Dropped bytes error (maybe fixed) : 0
Duplicated bytes error (maybe fixed) : 0
Inconsistency in error sectors : 0
Track 12
Filename : /Users/davidtoddsmall/Documents/FLACified/12 Sex Mob - Darling Nikki.flac
/Users/davidtoddsmall/Documents/FLACified/12 Sex Mob - Darling Nikki.mp3
CRC32 hash (test run) : CA6048F9
CRC32 hash : CA6048F9
CRC32 hash (skip zero) : A930BF18
AccurateRip signature : 51F5C2E5
->Track not present in AccurateRip database.
Statistics
Read error : 0
Skipped (treated as error) : 0
Edge jitter error (maybe fixed) : 0
Atom jitter error (maybe fixed) : 0
Drift error (maybe fixed) : 0
Dropped bytes error (maybe fixed) : 0
Duplicated bytes error (maybe fixed) : 0
Inconsistency in error sectors : 0
Track 13
Filename : /Users/davidtoddsmall/Documents/FLACified/13 Sex Mob - Odd Job.flac
/Users/davidtoddsmall/Documents/FLACified/13 Sex Mob - Odd Job.mp3
CRC32 hash (test run) : F36680C7
CRC32 hash : F36680C7
CRC32 hash (skip zero) : 82DB86A0
AccurateRip signature : CDED1319
->Track not present in AccurateRip database.
Statistics
Read error : 0
Skipped (treated as error) : 0
Edge jitter error (maybe fixed) : 0
Atom jitter error (maybe fixed) : 0
Drift error (maybe fixed) : 0
Dropped bytes error (maybe fixed) : 0
Duplicated bytes error (maybe fixed) : 0
Inconsistency in error sectors : 0
Track 14
Filename : /Users/davidtoddsmall/Documents/FLACified/14 Sex Mob - You Only Live Twice.flac
/Users/davidtoddsmall/Documents/FLACified/14 Sex Mob - You Only Live Twice.mp3
CRC32 hash (test run) : 325C8422
CRC32 hash : 325C8422
CRC32 hash (skip zero) : 327EBD06
AccurateRip signature : D45C0C1D
->Track not present in AccurateRip database.
Statistics
Read error : 0
Skipped (treated as error) : 0
Edge jitter error (maybe fixed) : 0
Atom jitter error (maybe fixed) : 0
Drift error (maybe fixed) : 0
Dropped bytes error (maybe fixed) : 0
Duplicated bytes error (maybe fixed) : 0
Inconsistency in error sectors : 0
Track 15
Filename : /Users/davidtoddsmall/Documents/FLACified/15 Sex Mob - Mob 4.flac
/Users/davidtoddsmall/Documents/FLACified/15 Sex Mob - Mob 4.mp3
CRC32 hash (test run) : 95A177EE
CRC32 hash : 95A177EE
CRC32 hash (skip zero) : 0BD74863
AccurateRip signature : 2C6A6370
->Track not present in AccurateRip database.
Statistics
Read error : 0
Skipped (treated as error) : 0
Edge jitter error (maybe fixed) : 0
Atom jitter error (maybe fixed) : 0
Drift error (maybe fixed) : 0
Dropped bytes error (maybe fixed) : 0
Duplicated bytes error (maybe fixed) : 0
Inconsistency in error sectors : 0
Track 16
Filename : /Users/davidtoddsmall/Documents/FLACified/16 Sex Mob - Artie Shaw.flac
/Users/davidtoddsmall/Documents/FLACified/16 Sex Mob - Artie Shaw.mp3
CRC32 hash (test run) : FD9DC97B
CRC32 hash : FD9DC97B
CRC32 hash (skip zero) : 32C03EF3
AccurateRip signature : 44FC377A
->Track not present in AccurateRip database.
Statistics
Read error : 0
Skipped (treated as error) : 0
Edge jitter error (maybe fixed) : 0
Atom jitter error (maybe fixed) : 0
Drift error (maybe fixed) : 0
Dropped bytes error (maybe fixed) : 0
Duplicated bytes error (maybe fixed) : 0
Inconsistency in error sectors : 0
No errors occurred
End of status report
 
cue
TITLE "Sex Mob meets Medeski-Live in Willisau 2006"
PERFORMER "Sex Mob"
REM DATE 2009
FILE "01 Sex Mob - Mob Rule Invocation.wav" WAVE
TRACK 01 AUDIO
TITLE "Mob Rule Invocation"
ISRC USAJ60918901
INDEX 01 00:00:00
FILE "02 Sex Mob - Mob Rule 1.wav" WAVE
TRACK 02 AUDIO
TITLE "Mob Rule 1"
ISRC USAJ60918902
INDEX 01 00:00:00
FILE "03 Sex Mob - Black and Tan Fantasy.wav" WAVE
TRACK 03 AUDIO
TITLE "Black and Tan Fantasy"
ISRC USAJ60918903
INDEX 01 00:00:00
FILE "04 Sex Mob - Mob Rule 2/Little Liza Jane.wav" WAVE
TRACK 04 AUDIO
TITLE "Mob Rule 2/Little Liza Jane"
ISRC USAJ60918904
INDEX 01 00:00:00
FILE "05 Sex Mob - Sign O the Times.wav" WAVE
TRACK 05 AUDIO
TITLE "Sign O the Times"
ISRC USAJ60918905
INDEX 01 00:00:00
FILE "06 Sex Mob - Down on the Farm.wav" WAVE
TRACK 06 AUDIO
TITLE "Down on the Farm"
ISRC USAJ60918906
INDEX 01 00:00:00
FILE "07 Sex Mob - This Never Happened to the Other Guy.wav" WAVE
TRACK 07 AUDIO
TITLE "This Never Happened to the Other Guy"
ISRC USAJ60918907
INDEX 01 00:00:00
FILE "08 Sex Mob - Mob Rule 3.wav" WAVE
TRACK 08 AUDIO
TITLE "Mob Rule 3"
ISRC USAJ60918908
INDEX 01 00:00:00
FILE "09 Sex Mob - This Never Happened Part 2.wav" WAVE
TRACK 09 AUDIO
TITLE "This Never Happened Part 2"
ISRC USAJ60918909
INDEX 01 00:00:00
FILE "10 Sex Mob - Blue and Sentimental.wav" WAVE
TRACK 10 AUDIO
TITLE "Blue and Sentimental"
ISRC USAJ60918910
INDEX 01 00:00:00
FILE "11 Sex Mob - Kenny Supreme.wav" WAVE
TRACK 11 AUDIO
TITLE "Kenny Supreme"
ISRC USAJ60918911
INDEX 01 00:00:00
FILE "12 Sex Mob - Darling Nikki.wav" WAVE
TRACK 12 AUDIO
TITLE "Darling Nikki"
ISRC USAJ60918912
INDEX 01 00:00:00
FILE "13 Sex Mob - Odd Job.wav" WAVE
TRACK 13 AUDIO
TITLE "Odd Job"
ISRC USAJ60918913
INDEX 01 00:00:00
FILE "14 Sex Mob - You Only Live Twice.wav" WAVE
TRACK 14 AUDIO
TITLE "You Only Live Twice"
ISRC USAJ60918914
INDEX 01 00:00:00
FILE "15 Sex Mob - Mob 4.wav" WAVE
TRACK 15 AUDIO
TITLE "Mob 4"
ISRC USAJ60918915
INDEX 01 00:00:00
FILE "16 Sex Mob - Artie Shaw.wav" WAVE
TRACK 16 AUDIO
TITLE "Artie Shaw"
ISRC USAJ60918916
INDEX 01 00:00:00
 
Отчёт Audiocheckera
AUDIOCHECKER v1.2 - by Dester - opdester@freemail.hu
~~~~~~~~~~~~~~~~~
01 -===- H:\Песеньки\lossless\sex mob john medeski\sex mob meets medeski live in willisau 2006\01 Sex Mob - Mob Rule Invocation.flac
Extracted successfully
Conclusion: Could not qualify the source of this track.
02 -===- H:\Песеньки\lossless\sex mob john medeski\sex mob meets medeski live in willisau 2006\02 Sex Mob - Mob Rule 1.flac
Extracted successfully
Conclusion: This track looks like CDDA with probability 85%
03 -===- H:\Песеньки\lossless\sex mob john medeski\sex mob meets medeski live in willisau 2006\03 Sex Mob - Black and Tan Fantasy.flac
Extracted successfully
Conclusion: This track looks like CDDA with probability 43%
04 -===- H:\Песеньки\lossless\sex mob john medeski\sex mob meets medeski live in willisau 2006\04 Sex Mob - Mob Rule 2 Little Liza Jane.flac
Extracted successfully
Conclusion: Could not qualify the source of this track.
05 -===- H:\Песеньки\lossless\sex mob john medeski\sex mob meets medeski live in willisau 2006\05 Sex Mob - Sign O the Times.flac
Extracted successfully
Conclusion: This track looks like CDDA with probability 43%
06 -===- H:\Песеньки\lossless\sex mob john medeski\sex mob meets medeski live in willisau 2006\06 Sex Mob - Down on the Farm.flac
Extracted successfully
Conclusion: Could not qualify the source of this track.
07 -===- H:\Песеньки\lossless\sex mob john medeski\sex mob meets medeski live in willisau 2006\07 Sex Mob - This Never Happened to the Other Guy.flac
Extracted successfully
Conclusion: Could not qualify the source of this track.
08 -===- H:\Песеньки\lossless\sex mob john medeski\sex mob meets medeski live in willisau 2006\08 Sex Mob - Mob Rule 3.flac
Extracted successfully
Conclusion: Could not qualify the source of this track.
09 -===- H:\Песеньки\lossless\sex mob john medeski\sex mob meets medeski live in willisau 2006\09 Sex Mob - This Never Happened Part 2.flac
Extracted successfully
Conclusion: Could not qualify the source of this track.
10 -===- H:\Песеньки\lossless\sex mob john medeski\sex mob meets medeski live in willisau 2006\10 Sex Mob - Blue and Sentimental.flac
Extracted successfully
Conclusion: Could not qualify the source of this track.
11 -===- H:\Песеньки\lossless\sex mob john medeski\sex mob meets medeski live in willisau 2006\11 Sex Mob - Kenny Supreme.flac
Extracted successfully
Conclusion: Could not qualify the source of this track.
12 -===- H:\Песеньки\lossless\sex mob john medeski\sex mob meets medeski live in willisau 2006\12 Sex Mob - Darling Nikki.flac
Extracted successfully
Conclusion: This track looks like CDDA with probability 86%
13 -===- H:\Песеньки\lossless\sex mob john medeski\sex mob meets medeski live in willisau 2006\13 Sex Mob - Odd Job.flac
Extracted successfully
Conclusion: Could not qualify the source of this track.
14 -===- H:\Песеньки\lossless\sex mob john medeski\sex mob meets medeski live in willisau 2006\14 Sex Mob - You Only Live Twice.flac
Extracted successfully
Conclusion: This track looks like CDDA with probability 49%
15 -===- H:\Песеньки\lossless\sex mob john medeski\sex mob meets medeski live in willisau 2006\15 Sex Mob - Mob 4.flac
Extracted successfully
Conclusion: Could not qualify the source of this track.
16 -===- H:\Песеньки\lossless\sex mob john medeski\sex mob meets medeski live in willisau 2006\16 Sex Mob - Artie Shaw.flac
Extracted successfully
Conclusion: This track looks like CDDA with probability 54%
Какие-то безрадостные впечатления у Audiocheckera от этих файлов. Может быть, причина в том, что записывало радио.. Привожу картинки файлов, непонятных Audiocheckery.
 
Tau Analyzer
 
1
 
4
 
6
 
7
 
8
 
9
 
10
 
11
 
13
 
15
По всем вопросам пишите личное сообщение пользователю M0p94ok.
19:22
212
Нет комментариев. Ваш будет первым!