Вы используете незарегистрированную версию компонента "Вкладки"!

Поиск

(Avant-Garde, Free Jazz) Mujician - Spacetime - 2002, APE (image+.cue), lossless

(Avant-Garde, Free Jazz) Mujician - Spacetime - 2002, APE (image+.cue), lossless
Треклист:
Mujician - Spacetime
Жанр: Avant-Garde, Free Jazz
Год выпуска диска: 2002
Производитель диска: Cuneiform Rec., USA
Аудио кодек: APE
Тип рипа: image+.cue
Битрейт аудио: lossless
Продолжительность: 72:34
Трэклист:
1-7. Spacetime (I-VII)
8-15. Exquisitely Woven Spiritual Communication (I-VIII)
Доп. информация: Recorded at Victoria Rooms, Bristol, United Kingdom on February 24, 2001.
Paul Dunmall (soprano & tenor saxophones); Keith Tippett (piano); Paul Rodgers (double bass); Tony Levin (drums).
 
eaclog
Exact Audio Copy V0.99 prebeta 4 from 23. January 2008
Отчёт EAC об извлечении, выполненном 1. марта 2010, 22:02
Mujician / Spacetime
Дисковод: TSSTcorpCDDVDW SH-S203D Adapter: 3 ID: 0
Режим чтения : Достоверность
Использование точного потока : Да
Отключение кэша аудио : Да
Использование указателей C2 : Нет
Коррекция смещения при чтении : 6
Способность читать области Lead-in и Lead-out : Нет
Заполнение пропущенных сэмплов тишиной : Да
Удаление блоков с тишиной в начале и конце : Нет
При вычислениях CRC использовались нулевые сэмплы : Да
Интерфейс : Установленный внешний ASPI-интерфейс
Выходной формат : Внутренние WAV-операции
Формат сэмплов : 44.100 Гц; 16 бит; стерео
TOC извлечённого CD
Трек | Старт | Длительность | Начальный сектор | Конечный сектор
---------------------------------------------------------------------
1 | 0:00.00 | 2:09.32 | 0 | 9706
2 | 2:09.32 | 4:17.66 | 9707 | 29047
3 | 6:27.23 | 3:44.08 | 29048 | 45855
4 | 10:11.31 | 5:11.11 | 45856 | 69191
5 | 15:22.42 | 1:53.58 | 69192 | 77724
6 | 17:16.25 | 7:56.14 | 77725 | 113438
7 | 25:12.39 | 7:01.47 | 113439 | 145060
8 | 32:14.11 | 2:38.01 | 145061 | 156911
9 | 34:52.12 | 9:19.08 | 156912 | 198844
10 | 44:11.20 | 2:01.00 | 198845 | 207919
11 | 46:12.20 | 8:13.54 | 207920 | 244948
12 | 54:25.74 | 1:13.38 | 244949 | 250461
13 | 55:39.37 | 5:35.40 | 250462 | 275626
14 | 61:15.02 | 7:02.11 | 275627 | 307287
15 | 68:17.13 | 4:16.58 | 307288 | 326545
Характеристики диапазона извлечения и сообщения об ошибках
Выбранный диапазон
Имя файла E:\FOS\MISIC\Mujician\Mujician - Spacetime\Mujician - Spacetime.wav
Пиковый уровень 100.0 %
Качество диапазона 100.0 %
CRC копии D88602DA
Копирование... OK
Ошибок не произошло
Конец отчёта
По всем вопросам пишите личное сообщение пользователю M0p94ok.
19:21
147
Нет комментариев. Ваш будет первым!