Поиск

(Jazz-Funk) [CD] Akira Ishikawa Count Buffalo Jazz & Rock Band - Bakishinba: Memories of Africa - 1970 (2007 Japan Edition), FLAC (tracks+.cue), lossless

(Jazz-Funk) [CD] Akira Ishikawa Count Buffalo Jazz & Rock Band - Bakishinba: Memories of Africa - 1970 (2007 Japan Edition), FLAC (tracks+.cue), lossless
Треклист:
Akira Ishikawa Count Buffalo Jazz & Rock Band - Bakishinba: Memories of Africa
Жанр: Jazz-Funk
Носитель: CD
Страна-производитель диска (релиза): Япония
Год издания: 1970 (2007)
Издатель (лейбл): Polydor
Номер по каталогу: PROA-82
Аудиокодек: FLAC (*.flac)
Тип рипа: tracks+.cue
Битрейт аудио: lossless
Продолжительность: 43:16
Источник (релизер): wikieup (what)
Наличие сканов в содержимом раздачи: нет
Треклист:
01. Sandstorm (4:28)
02. Sunrise (3:56)
03. Flamingo (6:25)
04. African Deer (6:19)
05. Bakishinba (10:55)
06. Mirage (6:04)
07. Blue Soul (5:09)
Состав:
Akira Ishikawa - drums, bakishinba, african bongo
Kiyoshi Sugimoto - electric guitar
Isao Eto - electric bass
Hirosama Suzuki - keyboards
Masami Kawahara - latin percussion
Norio Maeda - organ
Takeru Muraoka - tenor saxophone
 
Лог создания рипа
Exact Audio Copy V1.0 beta 3 from 29. August 2011
EAC extraction logfile from 18. February 2014, 10:14
Akira Ishikawa Count Buffalo Jazz And Rock Band / Bakishinba - Memories Of Africa [2007 Reissue]
Used drive : TSSTcorpDVD-ROM TS-U333B Adapter: 0 ID: 1
Read mode : Secure
Utilize accurate stream : Yes
Defeat audio cache : Yes
Make use of C2 pointers : No
Read offset correction : 6
Overread into Lead-In and Lead-Out : No
Fill up missing offset samples with silence : Yes
Delete leading and trailing silent blocks : No
Null samples used in CRC calculations : Yes
Used interface : Native Win32 interface for Win NT & 2000
Gap handling : Appended to previous track
Used output format : User Defined Encoder
Selected bitrate : 1024 kBit/s
Quality : High
Add ID3 tag : No
Command line compressor : C:\Program Files\Exact Audio Copy\Flac\flac.exe
Additional command line options : -8 -V -T "ARTIST=%artist%" -T "TITLE=%title%" -T "ALBUM=%albumtitle%" -T "DATE=%year%" -T "TRACKNUMBER=%tracknr%" -T "GENRE=%genre%" -T "PERFORMER=%albuminterpret%" -T "COMPOSER=%composer%" %haslyrics%--tag-from-file=LYRICS="%lyricsfile%"%haslyrics% -T "ALBUMARTIST=%albumartist%" -T "DISCNUMBER=%cdnumber%" -T "TOTALDISCS=%totalcds%" -T "TOTALTRACKS=%numtracks%" -T "COMMENT=%comment%" %source% -o %dest%
TOC of the extracted CD
Track | Start | Length | Start sector | End sector
---------------------------------------------------------
1 | 0:00.00 | 4:28.11 | 0 | 20110
2 | 4:28.11 | 3:56.28 | 20111 | 37838
3 | 8:24.39 | 6:25.34 | 37839 | 66747
4 | 14:49.73 | 6:18.65 | 66748 | 95162
5 | 21:08.63 | 10:54.46 | 95163 | 144258
6 | 32:03.34 | 6:03.60 | 144259 | 171543
7 | 38:07.19 | 5:08.47 | 171544 | 194690
Track 1
Filename C:\EAC Rips\01 - Sandstorm.wav
Pre-gap length 0:00:02.00
Peak level 99.8 %
Extraction speed 2.6 X
Track quality 100.0 %
Test CRC 23259604
Copy CRC 23259604
Track not present in AccurateRip database
Copy OK
Track 2
Filename C:\EAC Rips\02 - Sunrise.wav
Pre-gap length 0:00:03.93
Peak level 99.7 %
Extraction speed 2.3 X
Track quality 99.9 %
Test CRC E7FF2399
Copy CRC E7FF2399
Track not present in AccurateRip database
Copy OK
Track 3
Filename C:\EAC Rips\03 - Flamingo.wav
Pre-gap length 0:00:03.25
Peak level 99.8 %
Extraction speed 2.9 X
Track quality 99.9 %
Test CRC B8AC88D3
Copy CRC B8AC88D3
Track not present in AccurateRip database
Copy OK
Track 4
Filename C:\EAC Rips\04 - African Deer.wav
Pre-gap length 0:00:03.30
Peak level 99.9 %
Extraction speed 3.6 X
Track quality 100.0 %
Test CRC F58A8CBE
Copy CRC F58A8CBE
Track not present in AccurateRip database
Copy OK
Track 5
Filename C:\EAC Rips\05 - Bakishinba.wav
Pre-gap length 0:00:03.33
Peak level 99.9 %
Extraction speed 4.2 X
Track quality 100.0 %
Test CRC 43F64BF5
Copy CRC 43F64BF5
Track not present in AccurateRip database
Copy OK
Track 6
Filename C:\EAC Rips\06 - Mirage.wav
Pre-gap length 0:00:04.04
Peak level 99.9 %
Extraction speed 4.4 X
Track quality 100.0 %
Test CRC 79C1A8FF
Copy CRC 79C1A8FF
Track not present in AccurateRip database
Copy OK
Track 7
Filename C:\EAC Rips\07 - Blue Soul.wav
Pre-gap length 0:00:04.78
Peak level 99.9 %
Extraction speed 4.5 X
Track quality 100.0 %
Test CRC 10E93A62
Copy CRC 10E93A62
Track not present in AccurateRip database
Copy OK
None of the tracks are present in the AccurateRip database
No errors occurred
End of status report
==== Log checksum B3B32674F4A4B695929207ED6C70927E10285B267918387BA82679D0647716A4 ====
 
Содержание индексной карты (.CUE)
REM GENRE Jazz
REM DATE 1970
REM DISCID 580A2307
REM COMMENT "ExactAudioCopy v1.0b3"
PERFORMER "Akira Ishikawa"
TITLE "Bakishinba: Memories of Africa"
FILE "01 - Sandstorm.wav" WAVE
TRACK 01 AUDIO
TITLE "Sandstorm"
PERFORMER "Akira Ishikawa"
INDEX 01 00:00:00
TRACK 02 AUDIO
TITLE "Sunrise"
PERFORMER "Akira Ishikawa"
INDEX 00 04:24:16
FILE "02 - Sunrise.wav" WAVE
INDEX 01 00:00:00
TRACK 03 AUDIO
TITLE "Flamingo"
PERFORMER "Akira Ishikawa"
INDEX 00 03:53:09
FILE "03 - Flamingo.wav" WAVE
INDEX 01 00:00:00
TRACK 04 AUDIO
TITLE "African Deer"
PERFORMER "Akira Ishikawa"
INDEX 00 06:22:11
FILE "04 - African Deer.wav" WAVE
INDEX 01 00:00:00
TRACK 05 AUDIO
TITLE "Bakishinba"
PERFORMER "Akira Ishikawa"
INDEX 00 06:15:40
FILE "05 - Bakishinba.wav" WAVE
INDEX 01 00:00:00
TRACK 06 AUDIO
TITLE "Mirage"
PERFORMER "Akira Ishikawa"
INDEX 00 10:50:43
FILE "06 - Mirage.wav" WAVE
INDEX 01 00:00:00
TRACK 07 AUDIO
TITLE "Blue Soul"
PERFORMER "Akira Ishikawa"
INDEX 00 05:59:01
FILE "07 - Blue Soul.wav" WAVE
INDEX 01 00:00:00
 
Об альбоме (сборнике)
One of the funkiest records ever from Akira Ishikawa and his Count Buffalos band -- a hip little groover that stands head to head with some of the best funky jazz from the US and Europe of the time! Despite Akira's earthy look on the cover, the record's got a relatively electric feel overall -- thanks to some sweet electric piano from Hiromasa Suzuki and organ from Norio Maeda -- both of whom work together on most numbers, with a great sense of flow between the keyboards! The rhythms have some Latin and African percussion added on the bottom, which gives the grooves a nicely chunky feel -- and some cuts have some sharp-edged tenor solos from Takeru Muraoka, who further deepens the soul of the set. The album's a really tremendous one through and through -- as righteous as a lost American funky fusion set from the early 70s -- and titles include "African Deer", "Sunrise", "Sandstorm", "Blue Soul", "Bakishinba", and "Mirage".
Приватный:
Нет (DHT включён)
Размер:
271.56 Мб (284,752,996 байт) » файлов: 12
Участники:
0 раздают, 0 качают (0 участников всего)
Внешние участники:
7 раздают, 2 качают (9 участников всего) [ Обновить ]
Есть вопросы - пишите личное сообщение пользователю M0p94ok.
05:06
57
Нет комментариев. Ваш будет первым!