Поиск

(Jazz-Funk) [CD] Akira Ishikawa - Back to Rhythm - 1975 (2007 Japan Edition), FLAC (tracks+.cue), lossless

Треклист:
Akira Ishikawa - Back to Rhythm
Жанр: Jazz-Funk
Носитель: CD
Страна-производитель диска (релиза): Япония
Год издания: 1975 (2007)
Издатель (лейбл): Columbia Music Entertainment
Номер по каталогу: COCB-53634
Аудиокодек: FLAC (*.flac)
Тип рипа: tracks+.cue
Битрейт аудио: lossless
Продолжительность: 40:42
Источник (релизер): wikieup (what)
Наличие сканов в содержимом раздачи: нет
Треклист:
01. I've Got to Use My Imagination (3:54)
02. Bongo Rock (2:46)
03. Do It 'Til You're Satisfied (3:57)
04. Hey Jude (4:06)
05. El Condor Pasa (4:10)
06. Pick Up the Pieces (4:45)
07. Love Is the Answer (3:38)
08. I Shot the Sheriff (4:18)
09. Let's Start (3:51)
10. Boogie on Raggae Woman (5:17)
Состав:
Akira Ishikawa - drums, vocals, african percussion
Masaoki Terakawa - bass
Kiyoshi Sugimoto, Takao Naoi, Tsunehide Matsuki - guitar
Hiromasa Suzuki - synthetizer
Takeru Muraoka, Masao Suzuki - saxophone
Eiji Arai - trombone
Koji Hatori - trumpet
Larry Sunaga - percussion
Recorded on January 13-20, 1975.
 
Лог создания рипа
Exact Audio Copy V1.0 beta 3 from 29. August 2011
EAC extraction logfile from 29. May 2013, 9:29
Akira Ishikawa / Back To Rhythm
Used drive : TSSTcorpDVD-ROM TS-U333B Adapter: 0 ID: 1
Read mode : Secure
Utilize accurate stream : Yes
Defeat audio cache : Yes
Make use of C2 pointers : No
Read offset correction : 6
Overread into Lead-In and Lead-Out : No
Fill up missing offset samples with silence : Yes
Delete leading and trailing silent blocks : No
Null samples used in CRC calculations : Yes
Used interface : Native Win32 interface for Win NT & 2000
Gap handling : Appended to previous track
Used output format : User Defined Encoder
Selected bitrate : 1024 kBit/s
Quality : High
Add ID3 tag : No
Command line compressor : C:\Program Files\Exact Audio Copy\Flac\flac.exe
Additional command line options : -8 -V -T "ARTIST=%artist%" -T "TITLE=%title%" -T "ALBUM=%albumtitle%" -T "DATE=%year%" -T "TRACKNUMBER=%tracknr%" -T "GENRE=%genre%" -T "PERFORMER=%albuminterpret%" -T "COMPOSER=%composer%" %haslyrics%--tag-from-file=LYRICS="%lyricsfile%"%haslyrics% -T "ALBUMARTIST=%albumartist%" -T "DISCNUMBER=%cdnumber%" -T "TOTALDISCS=%totalcds%" -T "TOTALTRACKS=%numtracks%" -T "COMMENT=%comment%" %source% -o %dest%
TOC of the extracted CD
Track | Start | Length | Start sector | End sector
---------------------------------------------------------
1 | 0:00.00 | 3:54.37 | 0 | 17586
2 | 3:54.37 | 2:45.48 | 17587 | 30009
3 | 6:40.10 | 3:57.17 | 30010 | 47801
4 | 10:37.27 | 4:06.35 | 47802 | 66286
5 | 14:43.62 | 4:09.70 | 66287 | 85031
6 | 18:53.57 | 4:44.60 | 85032 | 106391
7 | 23:38.42 | 3:37.40 | 106392 | 122706
8 | 27:16.07 | 4:17.55 | 122707 | 142036
9 | 31:33.62 | 3:51.35 | 142037 | 159396
10 | 35:25.22 | 5:16.53 | 159397 | 183149
Track 1
Filename C:\EAC Rips\01 - I've Got To Use My Imagination.wav
Pre-gap length 0:00:02.00
Peak level 97.7 %
Extraction speed 2.8 X
Track quality 100.0 %
Test CRC 6DAC9953
Copy CRC 6DAC9953
Track not present in AccurateRip database
Copy OK
Track 2
Filename C:\EAC Rips\02 - Bongo Rock.wav
Pre-gap length 0:00:01.09
Peak level 97.7 %
Extraction speed 2.2 X
Track quality 99.9 %
Test CRC 723F1A11
Copy CRC 723F1A11
Track not present in AccurateRip database
Copy OK
Track 3
Filename C:\EAC Rips\03 - Do It 'Til You're Satisfied.wav
Pre-gap length 0:00:02.29
Peak level 97.7 %
Extraction speed 3.2 X
Track quality 100.0 %
Test CRC 3DC63F81
Copy CRC 3DC63F81
Track not present in AccurateRip database
Copy OK
Track 4
Filename C:\EAC Rips\04 - Hey Jude.wav
Pre-gap length 0:00:01.80
Peak level 97.7 %
Extraction speed 3.4 X
Track quality 100.0 %
Test CRC A307ADDD
Copy CRC A307ADDD
Track not present in AccurateRip database
Copy OK
Track 5
Filename C:\EAC Rips\05 - El Condor Pasa.wav
Pre-gap length 0:00:00.82
Peak level 96.4 %
Extraction speed 3.7 X
Track quality 100.0 %
Test CRC 406A2269
Copy CRC 406A2269
Track not present in AccurateRip database
Copy OK
Track 6
Filename C:\EAC Rips\06 - Pick Up The Pieces.wav
Pre-gap length 0:00:02.49
Peak level 97.7 %
Extraction speed 4.0 X
Track quality 100.0 %
Test CRC 3E7DA828
Copy CRC 3E7DA828
Track not present in AccurateRip database
Copy OK
Track 7
Filename C:\EAC Rips\07 - Love Is The Answer.wav
Pre-gap length 0:00:01.13
Peak level 87.9 %
Extraction speed 4.0 X
Track quality 100.0 %
Test CRC C035DA6A
Copy CRC C035DA6A
Track not present in AccurateRip database
Copy OK
Track 8
Filename C:\EAC Rips\08 - I Shot The Sheriff.wav
Pre-gap length 0:00:00.86
Peak level 97.7 %
Extraction speed 4.3 X
Track quality 100.0 %
Test CRC 6DECE95A
Copy CRC 6DECE95A
Track not present in AccurateRip database
Copy OK
Track 9
Filename C:\EAC Rips\09 - Let's Start.wav
Pre-gap length 0:00:00.82
Peak level 97.7 %
Extraction speed 4.4 X
Track quality 100.0 %
Test CRC E20587A8
Copy CRC E20587A8
Track not present in AccurateRip database
Copy OK
Track 10
Filename C:\EAC Rips\10 - Boogie On Raggae Woman.wav
Pre-gap length 0:00:02.60
Peak level 97.7 %
Extraction speed 4.1 X
Track quality 99.9 %
Test CRC 1A0619CA
Copy CRC 1A0619CA
Track not present in AccurateRip database
Copy OK
None of the tracks are present in the AccurateRip database
No errors occurred
End of status report
==== Log checksum 63456C5D0301F9A1A6D446EA4AAB4DBD39DB29882B8ACE7EEBE6396FA589741D ====
 
Содержание индексной карты (.CUE)
REM GENRE Jazz
REM DATE 1975
REM DISCID 80098A0A
REM COMMENT "ExactAudioCopy v1.0b3"
PERFORMER "Akira Ishikawa"
TITLE "Back to Rhythm"
FILE "01 - I've Got to Use My Imagination.wav" WAVE
TRACK 01 AUDIO
TITLE "I've Got to Use My Imagination"
PERFORMER "Akira Ishikawa"
INDEX 01 00:00:00
TRACK 02 AUDIO
TITLE "Bongo Rock"
PERFORMER "Akira Ishikawa"
INDEX 00 03:53:30
FILE "02 - Bongo Rock.wav" WAVE
INDEX 01 00:00:00
TRACK 03 AUDIO
TITLE "Do It 'Til You're Satisfied"
PERFORMER "Akira Ishikawa"
INDEX 00 02:43:26
FILE "03 - Do It 'Til You're Satisfied.wav" WAVE
INDEX 01 00:00:00
TRACK 04 AUDIO
TITLE "Hey Jude"
PERFORMER "Akira Ishikawa"
INDEX 00 03:55:32
FILE "04 - Hey Jude.wav" WAVE
INDEX 01 00:00:00
TRACK 05 AUDIO
TITLE "El Condor Pasa"
PERFORMER "Akira Ishikawa"
INDEX 00 04:05:48
FILE "05 - El Condor Pasa.wav" WAVE
INDEX 01 00:00:00
TRACK 06 AUDIO
TITLE "Pick Up the Pieces"
PERFORMER "Akira Ishikawa"
INDEX 00 04:07:33
FILE "06 - Pick Up the Pieces.wav" WAVE
INDEX 01 00:00:00
TRACK 07 AUDIO
TITLE "Love Is the Answer"
PERFORMER "Akira Ishikawa"
INDEX 00 04:43:50
FILE "07 - Love Is the Answer.wav" WAVE
INDEX 01 00:00:00
TRACK 08 AUDIO
TITLE "I Shot the Sheriff"
PERFORMER "Akira Ishikawa"
INDEX 00 03:36:50
FILE "08 - I Shot the Sheriff.wav" WAVE
INDEX 01 00:00:00
TRACK 09 AUDIO
TITLE "Let's Start"
PERFORMER "Akira Ishikawa"
INDEX 00 04:16:68
FILE "09 - Let's Start.wav" WAVE
INDEX 01 00:00:00
TRACK 10 AUDIO
TITLE "Boogie on Raggae Woman"
PERFORMER "Akira Ishikawa"
INDEX 00 03:48:65
FILE "10 - Boogie on Raggae Woman.wav" WAVE
INDEX 01 00:00:00
 
Об альбоме (сборнике)
A Fusion album of Jazz Funk with african influences by great japanese drummer surrounded by his Count Buffalo featuring Kiyoshi Sugimoto, Takeru Muraoka, Larry Sunaga plus arranger Hiromasa Suzuki. Titles include some Pop covers from The Beatles to Simon & Garfunkel, the classics of Funk Do It'til You're Satisfied (BT' Express) and Boogie On Reggae Woman (Stevie Wonder), a huge groovy version of Pick Up The Pieces by the Average White Band, I Shot The Sheriff (the Eric Clapton variation), Bongo Rock from the Incredible Bongo Band version and Fella Kuti' Let's Start. All tracks arranged by Hiromasa Suzuki.
Приватный:
Нет (DHT включён)
Размер:
257.24 Мб (269,739,866 байт) » файлов: 18
Участники:
0 раздают, 0 качают (0 участников всего)
Внешние участники:
10 раздают, 3 качают (13 участников всего) [ Обновить ]
Есть вопросы - пишите личное сообщение пользователю M0p94ok.
05:06
71
Нет комментариев. Ваш будет первым!