Вы используете незарегистрированную версию компонента "Вкладки"!

Поиск

(Jazz, Free Improvisation) Fassang-Le Quang Duo - The Course of the Moon - 2007, FLAC (image+.cue), lossless

Треклист:
Fassang-Le Quang Duo / The Course of the Moon
Жанр: Jazz, Free Improvisation
Страна-производитель диска: Hungary
Год издания диска: 2007
Издатель (лейбл): Orpheia
Номер по каталогу: ORP005FLQ1
Страна: Hungary-France
Аудиокодек: FLAC (*.flac)
Тип рипа: image+.cue
Битрейт аудио: lossless
Продолжительность: 55:10
Источник (релизер): own rip
Наличие сканов в содержимом раздачи: да
Треклист:

01. The Iron Gate
02. The Course of the Sun
03. Kicsi Monkey
04. Procession
05. Deserted House
06. Legenybucsu
07. The Course of the Moon
08. Vom Hills
09. I Left my Heart in Budapest
 
Лог создания рипа
Exact Audio Copy V0.99 prebeta 5 from 4. May 2009
EAC extraction logfile from 19. July 2011, 22:01
Fassang-Le Quang Duo / The Course of the Moon
Used drive : Optiarc DVD RW AD-7261S Adapter: 5 ID: 0
Read mode : Secure
Utilize accurate stream : Yes
Defeat audio cache : No
Make use of C2 pointers : Yes
Read offset correction : 48
Overread into Lead-In and Lead-Out : No
Fill up missing offset samples with silence : Yes
Delete leading and trailing silent blocks : No
Null samples used in CRC calculations : Yes
Used interface : Native Win32 interface for Win NT & 2000
Used output format : User Defined Encoder
Selected bitrate : 384 kBit/s
Quality : High
Add ID3 tag : No
Command line compressor : C:\Program Files (x86)\Exact Audio Copy\FLAC\FLAC.EXE
Additional command line options : -8 -V -T "ARTIST=%a" -T "TITLE=%t" -T "ALBUM=%g" -T "DATE=%y" -T "TRACKNUMBER=%n" -T "GENRE=%m" -T "COMMENT=EAC FLAC -8" %s -o %d
TOC of the extracted CD
Track | Start | Length | Start sector | End sector
---------------------------------------------------------
1 | 0:00.00 | 4:30.20 | 0 | 20269
2 | 4:30.20 | 10:42.60 | 20270 | 68479
3 | 15:13.05 | 2:36.31 | 68480 | 80210
4 | 17:49.36 | 6:29.43 | 80211 | 109428
5 | 24:19.04 | 1:24.38 | 109429 | 115766
6 | 25:43.42 | 5:28.49 | 115767 | 140415
7 | 31:12.16 | 11:19.46 | 140416 | 191386
8 | 42:31.62 | 4:01.03 | 191387 | 209464
9 | 46:32.65 | 8:37.52 | 209465 | 248291
Range status and errors
Selected range
Filename I:\music\Fassang - Le Quang duo\The Course of the Moon\Fassang-Le Quang Duo - The Course of the Moon.wav
Peak level 94.4 %
Range quality 100.0 %
Copy CRC 20400F0F
Copy OK
No errors occurred
AccurateRip summary
Track 1 not present in database
Track 2 not present in database
Track 3 not present in database
Track 4 not present in database
Track 5 not present in database
Track 6 not present in database
Track 7 not present in database
Track 8 not present in database
Track 9 not present in database
None of the tracks are present in the AccurateRip database
End of status report
 
Содержание индексной карты (.CUE)
REM GENRE Freestyle
REM DATE 2007
REM DISCID 790CEE09
REM COMMENT "ExactAudioCopy v0.99pb5"
PERFORMER "Fassang-Le Quang Duo"
TITLE "The Course of the Moon"
FILE "Fassang-Le Quang Duo - The Course of the Moon.flac" WAVE
TRACK 01 AUDIO
TITLE "The Iron gate"
PERFORMER "Fassang-Le Quang Duo"
FLAGS DCP
INDEX 01 00:00:00
TRACK 02 AUDIO
TITLE "The Course of the Sun"
PERFORMER "Fassang-Le Quang Duo"
INDEX 01 04:30:20
TRACK 03 AUDIO
TITLE "Kicsi Monkey"
PERFORMER "Fassang-Le Quang Duo"
INDEX 01 15:13:05
TRACK 04 AUDIO
TITLE "Procession"
PERFORMER "Fassang-Le Quang Duo"
INDEX 01 17:49:36
TRACK 05 AUDIO
TITLE "Deserted House"
PERFORMER "Fassang-Le Quang Duo"
INDEX 01 24:19:04
TRACK 06 AUDIO
TITLE "Legénybúcsú"
PERFORMER "Fassang-Le Quang Duo"
INDEX 01 25:43:42
TRACK 07 AUDIO
TITLE "The Course of the Moon"
PERFORMER "Fassang-Le Quang Duo"
INDEX 01 31:12:16
TRACK 08 AUDIO
TITLE "Vom Hills"
PERFORMER "Fassang-Le Quang Duo"
INDEX 01 42:31:62
TRACK 09 AUDIO
TITLE "I Left my Heart in Budapest"
PERFORMER "Fassang-Le Quang Duo"
INDEX 01 46:32:65
 
Об исполнителе (группе)
When we are about to play together, despite the normal tenseness felt by all who improvise before the big leap, we feel that sense of confidence too. Whatever happens, we know that that other artist with us will be present; he, too, won’t permit any breaks in the musical flow. It is the same as for flying trapeze artists: there is always a hand there, exactly where and when it should be, to prevent a fall… While improvising, our sense of the instant widens, an infinity of musical paths constantly rises to meet us at each moment. And at the same time, a truly inspired improvisation makes us feel like we took the only possible path… When we voluntarily lose ourselves to musical improvisation, we never choose this or that style from a predefined repertoire, since the music itself also talks and forces itself upon us (even if it would be dishonest to deny certain automatisms). We would like the music itself to do the talking, with us as a vehicle only. Effectively, this is the purpose of our search: bring it on, let it live. ~ Laszlo Fassang and Vincent Le Quang
 
Состав
László Fassang - piano
Vincent Le Quang - soprano saxophone
По всем вопросам пишите личное сообщение пользователю M0p94ok.
14:58
220
Нет комментариев. Ваш будет первым!