Вы используете незарегистрированную версию компонента "Вкладки"!

Поиск

(Avant-garde, Free Improvisation) George Lewis - Miya Masaoka - Duets - 1998, FLAC (tracks+.cue), lossless

(Avant-garde, Free Improvisation) George Lewis - Miya Masaoka - Duets - 1998, FLAC (tracks+.cue), lossless
Треклист:
George Lewis - Miya Masaoka - Duets
Жанр: Avant-garde, Free Improvisation
Страна-производитель диска: USA
Год издания диска: 1998
Издатель (лейбл): Music and Arts
Номер по каталогу: CD-1023
Аудиокодек: FLAC (*.flac)
Тип рипа: tracks+.cue
Битрейт аудио: lossless
Продолжительность: 1:05:56
Источник (релизер): собственный рип с оригинального диска
Наличие сканов в содержимом раздачи: да
Треклист:
01. Usual Turmoil
02. The Lion's Sin
03. The New Doctrine
04. The Price of Survival
05. Mande [Oldest Language in the World]
06. I Remember Chicago
07. A Thousand Subtle Ways
08. Harbor the Desire
09. Swahili Is Spoken
10. The Gun, the Knife and Try to Forget
11. Live Duet #1
12. Live Duet #2
 
Лог создания рипа
Exact Audio Copy V0.99 prebeta 5 from 4. May 2009
EAC extraction logfile from 16. July 2011, 13:13
George Lewis-Miya Masaoka / Duets
Used drive : TSSTcorpCDDVDW SH-S222A Adapter: 1 ID: 0
Read mode : Secure
Utilize accurate stream : Yes
Defeat audio cache : Yes
Make use of C2 pointers : No
Read offset correction : 6
Overread into Lead-In and Lead-Out : No
Fill up missing offset samples with silence : Yes
Delete leading and trailing silent blocks : No
Null samples used in CRC calculations : Yes
Used interface : Installed external ASPI interface
Gap handling : Appended to previous track
Used output format : User Defined Encoder
Selected bitrate : 768 kBit/s
Quality : High
Add ID3 tag : No
Command line compressor : C:\Tool\Compress\FLAC\flac.exe
Additional command line options : -8 -V -T "ARTIST=%a" -T "TITLE=%t" -T "ALBUM=%g" -T "DATE=%y" -T "TRACKNUMBER=%n" -T "TOTALTRACKS=%x" -T "GENRE=%m" -T "ALBUM ARTIST=%v" -T "COMMENT=EAC V0.99 prebeta 5, Secure Mode, Test & Copy, AccurateRip, FLAC -8" %s
TOC of the extracted CD
Track | Start | Length | Start sector | End sector
---------------------------------------------------------
1 | 0:00.00 | 5:26.60 | 0 | 24509
2 | 5:26.60 | 4:04.30 | 24510 | 42839
3 | 9:31.15 | 4:42.05 | 42840 | 63994
4 | 14:13.20 | 3:19.35 | 63995 | 78954
5 | 17:32.55 | 2:45.50 | 78955 | 91379
6 | 20:18.30 | 5:01.12 | 91380 | 113966
7 | 25:19.42 | 5:33.33 | 113967 | 138974
8 | 30:53.00 | 5:17.62 | 138975 | 162811
9 | 36:10.62 | 3:18.30 | 162812 | 177691
10 | 39:29.17 | 4:13.38 | 177692 | 196704
11 | 43:42.55 | 10:15.32 | 196705 | 242861
12 | 53:58.12 | 12:00.38 | 242862 | 296899
Track 1
Filename C:\! UPLOAD\George Lewis-Miya Masaoka - Duets (1997) [FLAC] {M&A}\01 - The Usual Turmoil.wav
Pre-gap length 0:00:02.00
Peak level 77.4 %
Track quality 100.0 %
Test CRC 892C2D54
Copy CRC 892C2D54
Track not present in AccurateRip database
Copy OK
Track 2
Filename C:\! UPLOAD\George Lewis-Miya Masaoka - Duets (1997) [FLAC] {M&A}\02 - The Lion_s Sin.wav
Pre-gap length 0:00:06.64
Peak level 100.0 %
Track quality 99.9 %
Test CRC 488F3973
Copy CRC 488F3973
Track not present in AccurateRip database
Copy OK
Track 3
Filename C:\! UPLOAD\George Lewis-Miya Masaoka - Duets (1997) [FLAC] {M&A}\03 - The New Doctrine.wav
Pre-gap length 0:00:05.04
Peak level 89.3 %
Track quality 100.0 %
Test CRC 96CFEFA1
Copy CRC 96CFEFA1
Track not present in AccurateRip database
Copy OK
Track 4
Filename C:\! UPLOAD\George Lewis-Miya Masaoka - Duets (1997) [FLAC] {M&A}\04 - The Price of Survival.wav
Pre-gap length 0:00:07.10
Peak level 46.8 %
Track quality 100.0 %
Test CRC 493D2619
Copy CRC 493D2619
Track not present in AccurateRip database
Copy OK
Track 5
Filename C:\! UPLOAD\George Lewis-Miya Masaoka - Duets (1997) [FLAC] {M&A}\05 - Mande (oldest language in the world).wav
Pre-gap length 0:00:06.57
Peak level 100.0 %
Track quality 100.0 %
Test CRC A08AB816
Copy CRC A08AB816
Track not present in AccurateRip database
Copy OK
Track 6
Filename C:\! UPLOAD\George Lewis-Miya Masaoka - Duets (1997) [FLAC] {M&A}\06 - I Remember Chicago.wav
Pre-gap length 0:00:03.24
Peak level 90.5 %
Track quality 99.9 %
Test CRC CE822FB9
Copy CRC CE822FB9
Track not present in AccurateRip database
Copy OK
Track 7
Filename C:\! UPLOAD\George Lewis-Miya Masaoka - Duets (1997) [FLAC] {M&A}\07 - A Thousand Subtle Ways.wav
Pre-gap length 0:00:08.40
Peak level 37.9 %
Track quality 100.0 %
Test CRC 01B7BB42
Copy CRC 01B7BB42
Track not present in AccurateRip database
Copy OK
Track 8
Filename C:\! UPLOAD\George Lewis-Miya Masaoka - Duets (1997) [FLAC] {M&A}\08 - Harbor the Desire.wav
Pre-gap length 0:00:04.84
Peak level 76.5 %
Track quality 100.0 %
Test CRC 1DFA972F
Copy CRC 1DFA972F
Track not present in AccurateRip database
Copy OK
Track 9
Filename C:\! UPLOAD\George Lewis-Miya Masaoka - Duets (1997) [FLAC] {M&A}\09 - Swahili is Spoken.wav
Pre-gap length 0:00:04.66
Peak level 47.5 %
Track quality 100.0 %
Test CRC 10567752
Copy CRC 10567752
Track not present in AccurateRip database
Copy OK
Track 10
Filename C:\! UPLOAD\George Lewis-Miya Masaoka - Duets (1997) [FLAC] {M&A}\10 - The Gun, the Knife and Try to Forgot.wav
Pre-gap length 0:00:06.06
Peak level 100.0 %
Track quality 100.0 %
Test CRC 21783ED4
Copy CRC 21783ED4
Track not present in AccurateRip database
Copy OK
Track 11
Filename C:\! UPLOAD\George Lewis-Miya Masaoka - Duets (1997) [FLAC] {M&A}\11 - Live Duet #1.wav
Pre-gap length 0:00:05.57
Peak level 74.3 %
Track quality 100.0 %
Test CRC FECEAC54
Copy CRC FECEAC54
Track not present in AccurateRip database
Copy OK
Track 12
Filename C:\! UPLOAD\George Lewis-Miya Masaoka - Duets (1997) [FLAC] {M&A}\12 - Live Duet #2.wav
Pre-gap length 0:00:02.66
Peak level 98.8 %
Track quality 100.0 %
Test CRC F798477F
Copy CRC F798477F
Track not present in AccurateRip database
Copy OK
None of the tracks are present in the AccurateRip database
No errors occurred
End of status report
 
Содержание индексной карты (.CUE)
REM GENRE Avant-Garde
REM DATE 1998
REM DISCID 8B0F760C
REM COMMENT "ExactAudioCopy v0.99pb5"
PERFORMER "George Lewis-Miya Masaoka"
TITLE "Duets"
FILE "01 - The Usual Turmoil.wav" WAVE
TRACK 01 AUDIO
TITLE "The Usual Turmoil"
PERFORMER "George Lewis-Miya Masaoka"
FLAGS DCP
INDEX 01 00:00:00
TRACK 02 AUDIO
TITLE "The Lion_s Sin"
PERFORMER "George Lewis-Miya Masaoka"
FLAGS DCP
INDEX 00 05:20:12
FILE "02 - The Lion_s Sin.wav" WAVE
INDEX 01 00:00:00
TRACK 03 AUDIO
TITLE "The New Doctrine"
PERFORMER "George Lewis-Miya Masaoka"
FLAGS DCP
INDEX 00 03:59:27
FILE "03 - The New Doctrine.wav" WAVE
INDEX 01 00:00:00
TRACK 04 AUDIO
TITLE "The Price of Survival"
PERFORMER "George Lewis-Miya Masaoka"
FLAGS DCP
INDEX 00 04:34:72
FILE "04 - The Price of Survival.wav" WAVE
INDEX 01 00:00:00
TRACK 05 AUDIO
TITLE "Mande (oldest language in the world)"
PERFORMER "George Lewis-Miya Masaoka"
FLAGS DCP
INDEX 00 03:12:67
FILE "05 - Mande (oldest language in the world).wav" WAVE
INDEX 01 00:00:00
TRACK 06 AUDIO
TITLE "I Remember Chicago"
PERFORMER "George Lewis-Miya Masaoka"
FLAGS DCP
INDEX 00 02:42:32
FILE "06 - I Remember Chicago.wav" WAVE
INDEX 01 00:00:00
TRACK 07 AUDIO
TITLE "A Thousand Subtle Ways"
PERFORMER "George Lewis-Miya Masaoka"
FLAGS DCP
INDEX 00 04:52:57
FILE "07 - A Thousand Subtle Ways.wav" WAVE
INDEX 01 00:00:00
TRACK 08 AUDIO
TITLE "Harbor the Desire"
PERFORMER "George Lewis-Miya Masaoka"
FLAGS DCP
INDEX 00 05:28:45
FILE "08 - Harbor the Desire.wav" WAVE
INDEX 01 00:00:00
TRACK 09 AUDIO
TITLE "Swahili is Spoken"
PERFORMER "George Lewis-Miya Masaoka"
FLAGS DCP
INDEX 00 05:13:12
FILE "09 - Swahili is Spoken.wav" WAVE
INDEX 01 00:00:00
TRACK 10 AUDIO
TITLE "The Gun, the Knife and Try to Forgot"
PERFORMER "George Lewis-Miya Masaoka"
FLAGS DCP
INDEX 00 03:12:25
FILE "10 - The Gun, the Knife and Try to Forgot.wav" WAVE
INDEX 01 00:00:00
TRACK 11 AUDIO
TITLE "Live Duet #1"
PERFORMER "George Lewis-Miya Masaoka"
FLAGS DCP
INDEX 00 04:07:70
FILE "11 - Live Duet #1.wav" WAVE
INDEX 01 00:00:00
TRACK 12 AUDIO
TITLE "Live Duet #2"
PERFORMER "George Lewis-Miya Masaoka"
FLAGS DCP
INDEX 00 10:12:57
FILE "12 - Live Duet #2.wav" WAVE
INDEX 01 00:00:00
Доп. информация:
1-10 1997 Studio Recordings
11-12 Recorde live at Koncepts Cultural Gallery, Oakland Museum, Feb. 1 1997
 
Об альбоме (сборнике)
This is one of albums of George Lewis in young days. Characteristics of his music appears very clear in
this. Namely, Side A (CD 1,2) is duo improvisation with Douglas Ewart, who is same generation collegue of AACM at that time.
Side B (CD 3,4) is experimental trial with electronics and acoustic instruments.
As total sound is not so abstract and fragmental, easy to listen than its impression. ~~ FtM
 
Состав
George Lewis - trombone
Miya Masaoka - koto
Any questions -> support@pro-jazz.com. По всем вопросам пишите -> support@pro-jazz.com
14:58
223
Нет комментариев. Ваш будет первым!