Вы используете незарегистрированную версию компонента "Вкладки"!

Поиск

(Jazz, Free Funk, Avant-Garde) James Blood Ulmer - Harmolodic Guitar With Strings - 1993, FLAC (image+.cue) losseless

(Jazz, Free Funk, Avant-Garde) James Blood Ulmer - Harmolodic Guitar With Strings - 1993, FLAC (image+.cue) losseless
Треклист:
James Blood Ulmer - Harmolodic Guitar With Strings
Жанр: Jazz, Free Funk, Avant-Garde
Год выпуска диска: 1993
Производитель диска: Россия
Аудио кодек: FLAC
Тип рипа: image+.cue
Продолжительность: 51:56
Трэклист:
1 Opening 1:02
2 Arena: Church 2:29
3 Arena: Seven Gates :43
4 Arena: Arena 3:38
5 Arena: Lights Out 1:43
6 Arena: Church II 2:24
7 Arena: Arena II 3:03
8 Page One: In the Name of... 2:42
9 Page One: Page One 1:42
10 Page One: Blood and John 3:11
11 Page One: Page One II :39
12 Page One: Grand Finale 1:35
13 Maya Ulmer 10:35
14 Black Sheep: Prologue :33
15 Black Sheep: By-Pass 1:53
16 Black Sheep: Caretaker 1:54
17 Black Sheep: Lost One 1:41
18 Black Sheep: Black Sheep 1:03
19 Black Sheep: Epilogue :42
20 Theme From Captain Black 7:57
Состав:
James Blood Ulmer - Guitar, Vocals, Producer
John Blake - Violin
Akua Dixon-Turre - Cello
Gayle Dixon - Violin
Ron Lawrence - Viola
Крутизна!!!!
 
EAC log
Exact Audio Copy V0.99 prebeta 5 from 4. May 2009
EAC extraction logfile from 31. August 2009, 11:32
James Blood Ulmer / Harmolodic Guitar with Strings
Used drive : Optiarc DVD RW AD-7543A Adapter: 2 ID: 0
Read mode : Secure
Utilize accurate stream : Yes
Defeat audio cache : Yes
Make use of C2 pointers : No
Read offset correction : 48
Overread into Lead-In and Lead-Out : No
Fill up missing offset samples with silence : Yes
Delete leading and trailing silent blocks : No
Null samples used in CRC calculations : Yes
Used interface : Native Win32 interface for Win NT & 2000
Used output format : Internal WAV Routines
Sample format : 44.100 Hz; 16 Bit; Stereo
TOC of the extracted CD
Track | Start | Length | Start sector | End sector
---------------------------------------------------------
1 | 0:00.00 | 1:04.00 | 0 | 4799
2 | 1:04.00 | 2:31.62 | 4800 | 16186
3 | 3:35.62 | 0:45.55 | 16187 | 19616
4 | 4:21.42 | 3:40.38 | 19617 | 36154
5 | 8:02.05 | 1:45.00 | 36155 | 44029
6 | 9:47.05 | 2:26.65 | 44030 | 55044
7 | 12:13.70 | 3:05.62 | 55045 | 68981
8 | 15:19.57 | 2:44.70 | 68982 | 81351
9 | 18:04.52 | 1:44.23 | 81352 | 89174
10 | 19:49.00 | 3:13.40 | 89175 | 103689
11 | 23:02.40 | 0:41.15 | 103690 | 106779
12 | 23:43.55 | 1:37.22 | 106780 | 114076
13 | 25:21.02 | 10:37.13 | 114077 | 161864
14 | 35:58.15 | 0:35.60 | 161865 | 164549
15 | 36:34.00 | 1:55.65 | 164550 | 173239
16 | 38:29.65 | 1:56.32 | 173240 | 181971
17 | 40:26.22 | 1:43.00 | 181972 | 189696
18 | 42:09.22 | 1:05.10 | 189697 | 194581
19 | 43:14.32 | 0:44.13 | 194582 | 197894
20 | 43:58.45 | 7:57.50 | 197895 | 233719
Range status and errors
Selected range
Filename Z:\home\igo\eac\CDImage.wav
Peak level 99.3 %
Range quality 100.0 %
Copy CRC 61CFB7B6
Copy OK
No errors occurred
AccurateRip summary
Track 1 not present in database
Track 2 not present in database
Track 3 not present in database
Track 4 not present in database
Track 5 not present in database
Track 6 not present in database
Track 7 not present in database
Track 8 not present in database
Track 9 not present in database
Track 10 not present in database
Track 11 not present in database
Track 12 not present in database
Track 13 not present in database
Track 14 not present in database
Track 15 not present in database
Track 16 not present in database
Track 17 not present in database
Track 18 not present in database
Track 19 not present in database
Track 20 not present in database
None of the tracks are present in the AccurateRip database
End of status report
 
auCDtect
auCDtect: CD records authenticity detector, version 0.8.2
Copyright (c) 2004 Oleg Berngardt. All rights reserved.
Copyright (c) 2004 Alexander Djourik. All rights reserved.
------------------------------------------------------------
Processing file: [CDImage.wav]
Detected average hi-boundary frequency: 2.021230e+04 Hz
Detected average lo-boundary frequency: 1.276158e+04 Hz
Detected average hi-cut frequency: 2.173729e+04 Hz
Detected average lo-cut frequency: 1.164690e+04 Hz
Maximum probablis boundary frequency: 2.189100e+04 Hz
Coefficient of nonlinearity of a phase: 1.190396e-01
First order smothness: 3.777482e-01
Second order smothness: 7.393859e-01
------------------------------------------------------------
This track looks like CDDA with probability 100%
------------------------------------------------------------
Final Conclusion:
------------------------------------------------------------
These tracks looks like CDDA with probability 100%
По всем вопросам пишите личное сообщение пользователю M0p94ok.
14:11
193
Нет комментариев. Ваш будет первым!