Вы используете незарегистрированную версию компонента "Вкладки"!

Поиск

(Avant-Garde, Funk) Roscoe Mitchell and The Sound and Space Ensembles - 1984, FLAC (tracks+.cue), lossless

(Avant-Garde, Funk) Roscoe Mitchell and The Sound and Space Ensembles - 1984, FLAC (tracks+.cue), lossless
Треклист:
Roscoe Mitchell and The Sound and Space Ensembles
Жанр: Avant-Garde, Funk
Год выпуска диска: 1984
Производитель диска: Black Saint
Аудио кодек: FLAC
Тип рипа: tracks+.cue
Битрейт аудио: lossless
Трэклист:
1. Words (11:15)
Saxophone [Alto] - Roscoe Mitchell
Saxophone [Baritone] - Gerald Oshita
Voice [Tenor] - Tom Buckner
2. You Wastin' My Tyme (4:02)
Lead Vocals, Saxophone [Alto, Bass] - Roscoe Mitchell
Saxophone [Baritone, Tenor], Wind [Contrabass Sarrusophone] - Gerald Oshita
Trumpet, Trumpet [Piccolo], Percussion - Mike Mossman
Vocals, Bass [Electric], Percussion - Jaribu Shahid
Vocals, Drums, Bongos - Tani Tabbal
Vocals, Guitar, Percussion - Spencer Barefield
3. Views A, B And C (4:28)
Bass - Jaribu Shahid
Drums - Tani Tabbal
Guitar - Spencer Barefield
Saxophone [Soprano] - Roscoe Mitchell
Trumpet - Mike Mossman
4. Linefine Lyon Seven (8:00)
Bass - Jaribu Shahid
Drums - Tani Tabbal
Guitar - Spencer Barefield
Saxophone [Alto] - Roscoe Mitchell
Saxophone [Baritone] - Gerald Oshita
Trumpet - Mike Mossman
5. View D (2:10)
Bass - Jaribu Shahid
Drums - Tani Tabbal
Guitar - Spencer Barefield
Saxophone [Soprano] - Roscoe Mitchell
Trumpet - Mike Mossman
6. Variations On Sketches From Bamboo (12:10)
Bass - Jaribu Shahid
Drums - Tani Tabbal
Flugelhorn - Mike Mossman
Guitar - Spencer Barefield
Saxophone [Tenor] - Roscoe Mitchell
Voice [Tenor] - Tom Buckner
Wind [Mezzosoprano Conn-o-saxophone] - Gerald Oshita
 
скрытый текст
Exact Audio Copy V0.99 prebeta 5 from 4. May 2009
EAC extraction logfile from 29. August 2009, 12:18
Roscoe Mitchell / Roscoe Mitchell and the Sound and Space Ensembles
Used drive : Optiarc DVD RW AD-7170S Adapter: 5 ID: 0
Read mode : Secure
Utilize accurate stream : Yes
Defeat audio cache : Yes
Make use of C2 pointers : No
Read offset correction : 48
Overread into Lead-In and Lead-Out : No
Fill up missing offset samples with silence : Yes
Delete leading and trailing silent blocks : No
Null samples used in CRC calculations : Yes
Used interface : Installed external ASPI interface
Gap handling : Appended to previous track
Used output format : User Defined Encoder
Selected bitrate : 1024 kBit/s
Quality : High
Add ID3 tag : No
Command line compressor : C:\Program Files\FLAC\flac.exe
Additional command line options : -8 -V -T "ARTIST=%a" -T "TITLE=%t" -T "ALBUM=%g" -T "DATE=%y" -T "TRACKNUMBER=%n" -T "GENRE=%m" -T "COMMENT=EAC FLAC -8" %s
TOC of the extracted CD
Track | Start | Length | Start sector | End sector
---------------------------------------------------------
1 | 0:00.33 | 11:18.32 | 33 | 50914
2 | 11:18.65 | 4:06.10 | 50915 | 69374
3 | 15:25.00 | 4:32.65 | 69375 | 89839
4 | 19:57.65 | 8:03.35 | 89840 | 126099
5 | 28:01.25 | 2:13.15 | 126100 | 136089
6 | 30:14.40 | 12:13.10 | 136090 | 191074
Track 1
Filename I:\New Jazz, Improv, Anantgarde\Roscoe Mitchell and the Sound and Space Ensembles\01 - Words.wav
Pre-gap length 0:00:02.44
Peak level 71.8 %
Track quality 100.0 %
Test CRC 2F9A08E9
Copy CRC 2F9A08E9
Cannot be verified as accurate (confidence 1) [28A8746A], AccurateRip returned [E3703EA5]
Copy OK
Track 2
Filename I:\New Jazz, Improv, Anantgarde\Roscoe Mitchell and the Sound and Space Ensembles\02 - You Wastin' My Time.wav
Peak level 79.0 %
Track quality 100.0 %
Test CRC 7EFB347E
Copy CRC 7EFB347E
Cannot be verified as accurate (confidence 1) [F2886734], AccurateRip returned [96757018]
Copy OK
Track 3
Filename I:\New Jazz, Improv, Anantgarde\Roscoe Mitchell and the Sound and Space Ensembles\03 - Views A, B, and C.wav
Peak level 66.4 %
Track quality 100.0 %
Test CRC C2932719
Copy CRC C2932719
Cannot be verified as accurate (confidence 1) [78D04B31], AccurateRip returned [36083F61]
Copy OK
Track 4
Filename I:\New Jazz, Improv, Anantgarde\Roscoe Mitchell and the Sound and Space Ensembles\04 - Linefine Lyon Seven.wav
Peak level 87.3 %
Track quality 99.9 %
Test CRC 813193E1
Copy CRC 813193E1
Cannot be verified as accurate (confidence 1) [B786435B], AccurateRip returned [6B41B8E4]
Copy OK
Track 5
Filename I:\New Jazz, Improv, Anantgarde\Roscoe Mitchell and the Sound and Space Ensembles\05 - View D.wav
Peak level 44.3 %
Track quality 100.0 %
Test CRC 099E79A3
Copy CRC 099E79A3
Cannot be verified as accurate (confidence 1) [10777F75], AccurateRip returned [FC6EAACC]
Copy OK
Track 6
Filename I:\New Jazz, Improv, Anantgarde\Roscoe Mitchell and the Sound and Space Ensembles\06 - Variations on Sketches from Bamboo.wav
Peak level 46.2 %
Track quality 100.0 %
Test CRC 75F78471
Copy CRC 75F78471
Cannot be verified as accurate (confidence 1) [8A8983E8], AccurateRip returned [EFF8BB97]
Copy OK
No tracks could be verified as accurate
You may have a different pressing from the one(s) in the database
No errors occurred
End of status report
 
скрытый текст
REM DISCID 5809F306
REM COMMENT "ExactAudioCopy v0.99pb5"
PERFORMER "Roscoe Mitchell"
TITLE "Roscoe Mitchell and the Sound and Space Ensembles"
FILE "01 - Words.wav" WAVE
TRACK 01 AUDIO
TITLE "Words"
PERFORMER "Roscoe Mitchell"
PREGAP 00:00:33
INDEX 01 00:00:00
FILE "02 - You Wastin' My Time.wav" WAVE
TRACK 02 AUDIO
TITLE "You Wastin' My Time"
PERFORMER "Roscoe Mitchell"
INDEX 01 00:00:00
FILE "03 - Views A, B, and C.wav" WAVE
TRACK 03 AUDIO
TITLE "Views A, B, and C"
PERFORMER "Roscoe Mitchell"
INDEX 01 00:00:00
FILE "04 - Linefine Lyon Seven.wav" WAVE
TRACK 04 AUDIO
TITLE "Linefine Lyon Seven"
PERFORMER "Roscoe Mitchell"
INDEX 01 00:00:00
FILE "05 - View D.wav" WAVE
TRACK 05 AUDIO
TITLE "View D"
PERFORMER "Roscoe Mitchell"
INDEX 01 00:00:00
FILE "06 - Variations on Sketches from Bamboo.wav" WAVE
TRACK 06 AUDIO
TITLE "Variations on Sketches from Bamboo"
PERFORMER "Roscoe Mitchell"
INDEX 01 00:00:00
Any questions -> support@pro-jazz.com. По всем вопросам пишите -> support@pro-jazz.com
14:12
153
Нет комментариев. Ваш будет первым!