Поиск

(Jazz, Folk, Axiom) Maleem Mahmoud Ghania with Pharoah Sanders - The Trance of Seven Colors (Bill Laswell) - 1994, APE (image+.cue), lossless

Треклист:
Maleem Mahmoud Ghania with Pharoah Sanders - The Trance of Seven Colors
Жанр: Jazz, Folk
Год выпуска диска: 1994
Производитель диска: USA
Лейбл: Axiom
Аудио кодек: APE
Тип рипа: image+.cue
Битрейт аудио: lossless
Продолжительность: 71 min
Трэклист:
The Trance Of Seven Colors
1. La Allah Dayim Moulenah
2. Bala Moussaka
3. Hamdouchi
4. Peace in Essaouira
5. Boulandi Samawi
6. Moussa Berkiyo/Koubaliy Beriah La'foh
7. Salat Anbi
8. Casa Casa Atougra
9. Mahraba
Доп. информация: Рип сделан с оригинального CD 314-524 047-2... Картинки прилагаются...
Музыканты:
Maleem Mahmoud Ghania - guimbri, lead vocal, tbel
Pharoah Sanders - tenor sax
и еще целая деревня мароканцев (смотрите буклет)...
Этот альбом - результат мароканского вояжа двух хороших людей...
 
Об альбоме
To call this outing "authentic" would be an understatement, given that Bill Laswell and Pharoah Sanders took only some digital recording equipment and Sanders' saxophone to Morocco to record it. The CD sleeve photos show the informal nature of the proceedings, revealing that the recording took place in someone's home with a large cast of musicians, many of whom are Ghania's family members. The recording did not suffer at all from the mobile equipment, and The Trance of Seven Colors lives up to its title, giving the listener first-hand access to Gnawa healing ceremonial music. Ghania's Guimbri (an African instrument) unravels masterful, off-kilter, bass-like lines over chanting and various percussion instruments. Pharoah Sanders sounds inspired in the setting also, making this a worthwhile recording for Sanders fans who heard intimations of world music in his '60s dates.
 
EAC Log
Exact Audio Copy V0.99 prebeta 4 from 23. January 2008
EAC extraction logfile from 25. November 2008, 11:50
Maleem Mahmoud Ghania with Pharoah Sanders / The Trance of Seven Colors
Used drive : TSSTcorpCD/DVDW SH-W162C Adapter: 0 ID: 0
Read mode : Secure
Utilize accurate stream : Yes
Defeat audio cache : Yes
Make use of C2 pointers : No
Read offset correction : 6
Overread into Lead-In and Lead-Out : No
Fill up missing offset samples with silence : Yes
Delete leading and trailing silent blocks : No
Null samples used in CRC calculations : Yes
Used interface : Installed external ASPI interface
Used output format : Internal WAV Routines
Sample format : 44.100 Hz; 16 Bit; Stereo
Use compression offset : 0
TOC of the extracted CD
Track | Start | Length | Start sector | End sector
---------------------------------------------------------
1 | 0:00.32 | 11:08.50 | 32 | 50181
2 | 11:09.07 | 3:54.43 | 50182 | 67774
3 | 15:03.50 | 9:05.00 | 67775 | 108649
4 | 24:08.50 | 7:21.55 | 108650 | 141779
5 | 31:30.30 | 13:53.65 | 141780 | 204319
6 | 45:24.20 | 4:33.57 | 204320 | 224851
7 | 49:58.02 | 8:17.68 | 224852 | 262194
8 | 58:15.70 | 5:04.02 | 262195 | 284996
9 | 63:19.72 | 7:46.70 | 284997 | 320016
Range status and errors
Selected range
Filename C:\Maleem Mahmoud Ghania with Pharoah Sanders (1994) Trance Of Seven Colors\Maleem Mahmoud Ghania with Pharoah Sanders - The Trance of Seven Colors.wav
Peak level 100.0 %
Range quality 100.0 %
Copy CRC A320B47C
Copy OK
No errors occurred
End of status report
Мои раздачи
04:35
272
Нет комментариев. Ваш будет первым!