Поиск

(Ethnic, Jazz) Zohar (Aaron Bensoussan & Uri Caine) - Keter - 1999, APE (image+.cue), lossless

Треклист:
Zohar (Aaron Bensoussan & Uri Caine) - Keter
Жанр: Ethno, Jazz
Год выпуска диска: 1999
Производитель диска: USA
Лейбл: Knitting Factory Records (Jewish Alternative Movement)
Аудио кодек: APE
Тип рипа: image+.cue
Битрейт аудио: lossless
Продолжительность: 67 min
Трэклист:
Zohar:Keter
1. Crown
2. Eli Eli
3. Wisdom
4. Joshua's Song
5. Love
6. Landio Medley
7. Insight
8. Yedidi
9. Justice
10. Pools of Water
11. Splendor
12. A Woman of Valour
13. Eternity
14. When It Will Be Built
15. Magnificence
16. Hamaudil
17. Shabbat Medley
18. Majesty
Доп. информация: Рип сделан с оригинального CD KFR-236... Картинки прилагаются...
Музыканты:
Aaron Bensousan - vocals, oud
Uri Caine - piano, electric piano
Emmanuel Mann - bass
Gilad - percussion
Adam Rogers - guitar
Lefteris Bournias - clarinet
DJ Olive - sampler, 808
Очередной альбом из серии JAM (Jewish Alternative Movement) от Knitting Factory...
 
Об альбоме
1999's Zohar is a culmination of sorts for Uri Caine, bringing together not only his background in classical and jazz music but his Jewish heritage and interest in electronic music as well. Sephardic/Morrocan singer Aaron Bensoussan and DJ Olive are among the creative minds at work here, making music that is imbued with soulful rhythms, technical grace and spirituality. Samples flow in and out of the guitar, bass and piano trio, while Bensoussan's voice glides and lilts atop the music. With Zohar, Caine and company break boundaries and pay tribute to tradition.
 
EAC Log
Exact Audio Copy V0.99 prebeta 4 from 23. January 2008
EAC extraction logfile from 25. November 2008, 19:06
Zohar / Keter
Used drive : TSSTcorpCD/DVDW SH-W162C Adapter: 0 ID: 0
Read mode : Secure
Utilize accurate stream : Yes
Defeat audio cache : Yes
Make use of C2 pointers : No
Read offset correction : 6
Overread into Lead-In and Lead-Out : No
Fill up missing offset samples with silence : Yes
Delete leading and trailing silent blocks : No
Null samples used in CRC calculations : Yes
Used interface : Installed external ASPI interface
Used output format : Internal WAV Routines
Sample format : 44.100 Hz; 16 Bit; Stereo
Use compression offset : 0
TOC of the extracted CD
Track | Start | Length | Start sector | End sector
---------------------------------------------------------
1 | 0:00.00 | 2:50.34 | 0 | 12783
2 | 2:50.34 | 10:17.03 | 12784 | 59061
3 | 13:07.37 | 1:18.05 | 59062 | 64916
4 | 14:25.42 | 4:20.27 | 64917 | 84443
5 | 18:45.69 | 1:59.65 | 84444 | 93433
6 | 20:45.59 | 6:33.23 | 93434 | 122931
7 | 27:19.07 | 1:32.13 | 122932 | 129844
8 | 28:51.20 | 4:56.52 | 129845 | 152096
9 | 33:47.72 | 0:56.54 | 152097 | 156350
10 | 34:44.51 | 4:32.30 | 156351 | 176780
11 | 39:17.06 | 1:46.58 | 176781 | 184788
12 | 41:03.64 | 5:24.43 | 184789 | 209131
13 | 46:28.32 | 2:37.54 | 209132 | 220960
14 | 49:06.11 | 4:54.61 | 220961 | 243071
15 | 54:00.72 | 1:31.46 | 243072 | 249942
16 | 55:32.43 | 2:57.03 | 249943 | 263220
17 | 58:29.46 | 0:29.03 | 263221 | 265398
18 | 58:58.49 | 7:19.55 | 265399 | 298378
19 | 66:18.29 | 0:54.27 | 298379 | 302455
Range status and errors
Selected range
Filename C:\Zohar (1999) Keter\Zohar - Keter.wav
Peak level 100.0 %
Range quality 100.0 %
Copy CRC 56AB41F0
Copy OK
No errors occurred
End of status report
Мои раздачи
03:36
265
Нет комментариев. Ваш будет первым!