Поиск

(Jazz) [Flexi] [mono] [24/96] VA - Пражский джазовый фестиваль - 1966 (Кругозор №2, стр. 12), FLAC (image+.cue)

(Jazz) [Flexi] [mono] [24/96] VA - Пражский джазовый фестиваль - 1966 (Кругозор №2, стр. 12), FLAC (image+.cue)
Треклист:
Various Artists
Пражский джазовый фестиваль
Жанр: Jazz
Носитель: Flexi
Год выпуска: 1966
Лейбл: Мелодия (33ГД 000345/2)
Страна-производитель: USSR
Аудио кодек: FLAC
Тип рипа: image+.cue
Формат записи: 24/96 (dual mono)
Формат раздачи: 24/96 (mono)
Продолжительность: 00:05:44
Тэги: прописаны
Источник оцифровки: автором раздачи
Код класса состояния винила: VG(-)
Устройство воспроизведения: Radiotehnika Aria 102
Головка звукоснимателя: Unitra MF 101
Предварительный усилитель: AMX - 100 (LTO®)
АЦП: Juli@
Программа-оцифровщик: Adobe Audition CS6 5.0.2.
Обработка: удаление артефактов, реставрация
Треклист:
01. Оркестр Брома (ЧССР) - Композиция
(М. Ржежабек)
02. Инструментальный квинтет (СССР) - Баллада
(Г. Гаранян)
03. Ле Свингл Сингерз (Франция) - ''Шутка'' из сюиты си-минор
(И. С. Бах)
 
Dynamic Range Meter (DR10):
foobar2000 1.1.3 / Dynamic Range Meter 1.1.1
log date: 2017-07-04 17:06:35
--------------------------------------------------------------------------------
Analyzed: Various Artists / Пражский джазовый фестиваль
--------------------------------------------------------------------------------
DR Peak RMS Duration Track
--------------------------------------------------------------------------------
DR9 -1.50 dB -14.84 dB 1:43 ?-01. Оркестр Брома (ЧССР) - Композиция
DR11 -3.24 dB -18.88 dB 2:42 ?-02. Инструментальный квинтет (СССР) - Баллада
DR11 -1.54 dB -14.63 dB 1:17 ?-03. Ле Свингл Сингерз (Франция) - ''Шутка'' из сюиты си-минор
--------------------------------------------------------------------------------
Number of tracks: 3
Official DR value: DR10
Samplerate: 96000 Hz
Channels: 1
Bits per sample: 24
Bitrate: 1537 kbps
Codec: FLAC
================================================================================
 
.cue txt:

REM GENRE "Jazz"
REM DATE "1966"
REM COMMENT "Flexi, 7'', 33rpm, mono, Мелодия 33ГД 000345/2, USSR"
TITLE "Пражский джазовый фестиваль"
PERFORMER "Various Artists"
FILE "01. Various - Пражский джазовый фестиваль (1966).flac" WAVE
TRACK 01 AUDIO
TITLE "01. Композиция "
PERFORMER "Оркестр Брома (ЧССР)"
INDEX 01 00:00:00
TRACK 02 AUDIO
TITLE "02. Баллада"
PERFORMER "Инструментальный квинтет (СССР)"
INDEX 01 01:42:46
TRACK 03 AUDIO
TITLE "03. ''Шутка'' из сюиты си-минор"
PERFORMER "Ле Свингл Сингерз (Франция)"
INDEX 01 04:24:68[/pre]
 
Уровень записи, спектр, АЧХ:
 
Страницы:


Приватный:
Нет (DHT включён)
Размер:
66.67 Мб (69,912,329 байт) » файлов: 4
Участники:
0 раздают, 0 качают (0 участников всего)
Внешние участники:
2 раздают, 1 качают (3 участников всего) [ Обновить ]
No seeders - write a personal message to user M0p94ok. Нет сидеров - пишите личное сообщение пользователю M0p94ok.
10:22
216
Нет комментариев. Ваш будет первым!