Поиск

(Blues) [MB] [24/64] VA - Blues Masters vol.1 - 1993, FLAC (image+.cue)

(Blues) [MB] [24/64] VA - Blues Masters vol.1 - 1993, FLAC (image+.cue)
Треклист:
Various Artists
Blues Masters vol.1 (1993)
Жанр: Blues
Носитель: MB
Год выпуска: 1993
Лейбл: Tara Music Factory
Страна-производитель: Russia
Аудио кодек: FLAC
Тип рипа: image+.cue
Формат записи: 24/192
Формат раздачи: 24/64
Продолжительность: 01: 32: 53
Тэги в .cue: прописаны
Источник оцифровки: автором раздачи
Код класса состояния магнитоленты: VG
Устройство воспроизведения: Союз 110
Магнитная головка: 6А24.510
Предварительный усилитель: встроенный
АЦП: Juli@
Программа-оцифровщик: Adobe Audition CS6 5.0.2.
Обработка: удаление артефактов, реставрация (iZotope RX 5)
 
Трэклист:

01. B. B. King - Standing On The Edge Of Love
02. Robert Cray - Move A Mountain
03. Buddy Guy & Paul Rodgers - Some Kind Of Wonderful
04. Phil Upchurch & James van Buren - Sweet Woman Blues
05. Roy Buchanan - Drowning on Dry Land
06. Katie Webster - Two-Fisted Mama!
07. Buddy Guy - I Could Cry
08. Bonnie Raitt - The Road's My Middle Name
09. John Hammond - Drifting Blues
10. Pops Staples - This May Be The Last Time
11. Saffire - Middle Aged Blues Boogie
12. Lou Rawls - I Just Want To Make Love To You
13. John Lee Hooker - I'm In The Mood
14. Albert Collins - Don't Mistake Kindness For Weakness
Bonus:
15. Stevie Ray Vaughan - Tin Pan Alley
16. Eric Clapton - Tears In Heaven
17. Eric Clapton - Help Me Up
18. Eric Clapton & Buddy Guy - Don't Know Which Way To Go
 
Коробка:

Нашёл ещё эквивалент магнитоальбома и на компакткассете.
 
Dynamic Range Meter (DR12):
foobar2000 1.1.3 / Dynamic Range Meter 1.1.1
log date: 2017-06-18 22:20:47
----------------------------------------------------------------
----------------
Analyzed: VA / Blues Masters vol.1
----------------------------------------------------------------
----------------
DR Peak RMS Duration Track
----------------------------------------------------------------
----------------
DR12 -1.55 dB -17.53 dB 43:37 ?-01. Сторона А
DR12 -1.44 dB -16.51 dB 49:16 ?-02. Сторона В
----------------------------------------------------------------
----------------
Number of tracks: 2
Official DR value: DR12
Samplerate: 64000 Hz
Channels: 2
Bits per sample: 24
Bitrate: 2027 kbps
Codec: FLAC
================================================================
================
 
Уровень записи, спектр, АЧХ:
 
.cue txt:
REM GENRE "Blues"
REM DATE "1993"
REM COMMENT "MB, Compilstion, Tara Music Factory, Russia"
TITLE "Blues Masters vol.1"
PERFORMER "Various Artists"
FILE "01. Сторона А.flac" WAVE
TRACK 01 AUDIO
TITLE "01. Standing On The Edge Of Love "
PERFORMER "B. B. King"
INDEX 01 00:00:00
TRACK 02 AUDIO
TITLE "02. Move A Mountain"
PERFORMER "Robert Cray"
INDEX 01 05:18:41
TRACK 03 AUDIO
TITLE "03. Some Kind Of Wonderful"
PERFORMER "Buddy Guy & Paul Rodgers"
INDEX 01 09:28:44
TRACK 04 AUDIO
TITLE "04. Sweet Woman Blues"
PERFORMER "Phil Upchurch & James van Buren"
INDEX 01 12:53:30
TRACK 05 AUDIO
TITLE "05. Drowning on Dry Land"
PERFORMER "Roy Buchanan"
INDEX 01 17:06:63
TRACK 06 AUDIO
TITLE "06. Two-Fisted Mama!"
PERFORMER "Katie Webster"
INDEX 01 23:22:34
TRACK 07 AUDIO
TITLE "07. I Could Cry"
PERFORMER "Buddy Guy"
INDEX 01 26:41:20
TRACK 08 AUDIO
TITLE "08. The Road's My Middle Name"
PERFORMER "Bonnie Raitt"
INDEX 01 31:44:67
TRACK 09 AUDIO
TITLE "09. Drifting Blues"
PERFORMER "John Hammond"
INDEX 01 35:12:68
TRACK 10 AUDIO
TITLE "10. This May Be The Last Time"
PERFORMER "Pops Staples"
INDEX 01 40:15:18
FILE "02. Сторона В.flac" WAVE
TRACK 11 AUDIO
TITLE "11. Middle Aged Blues Boogie"
PERFORMER "Saffire"
INDEX 01 00:00:00
TRACK 12 AUDIO
TITLE "12. I Just Want To Make Love To You"
PERFORMER "Lou Rawls"
INDEX 01 05:39:51
TRACK 13 AUDIO
TITLE "13. I'm In The Mood"
PERFORMER "John Lee Hooker"
INDEX 01 08:47:47
TRACK 14 AUDIO
TITLE "14. Don't Mistake Kindness For Weakness"
PERFORMER "Albert Collins"
INDEX 01 13:14:06
TRACK 15 AUDIO
TITLE "15. Tin Pan Alley"
PERFORMER "Stevie Ray Vaughan"
INDEX 01 19:23:42
TRACK 16 AUDIO
TITLE "16. Tears In Heaven"
PERFORMER "Eric Clapton"
INDEX 01 28:31:16
TRACK 17 AUDIO
TITLE "17. Help Me Up"
PERFORMER "Eric Clapton"
INDEX 01 32:57:69
TRACK 18 AUDIO
TITLE "18. Unknown Title"
PERFORMER "Unknown Aetist"
INDEX 01 38:45:11


Приватный:
Нет (DHT включён)
Размер:
1.36 Гб (1,459,109,446 байт) » файлов: 6
Участники:
0 раздают, 0 качают (0 участников всего)
Внешние участники:
3 раздают, 1 качают (4 участников всего) [ Обновить ]
No seeders - write a personal message to user M0p94ok. Нет сидеров - пишите личное сообщение пользователю M0p94ok.
10:17
205
Нет комментариев. Ваш будет первым!